
<?xml version="1.0" standalone="no"?> <!DOCTYPE svg PUBLIC "-//W3C//DTD SVG 1.0//EN" "http://www.w3.org/TR/2001/REC-SVG-20010904/DTD/svg10.dtd" > <svg xmlns="http://www.w3.org/2000/svg" width="100%" height="100%">
<defs >
<font id="IsonormEFB_Regular" horiz-adv-x="445" ><font-face
    font-family="IsonormEFB"
    units-per-em="1000"
    panose-1="2 0 5 6 3 0 0 2 0 4"
    ascent="903"
    descent="-250"
    alphabetic="0" />
<missing-glyph horiz-adv-x="500" d="M125 63H375V605H125V63ZM63 0V667H438V0H63Z" />
<glyph unicode=" " glyph-name="space" horiz-adv-x="192" />
<glyph unicode="!" glyph-name="exclam" horiz-adv-x="234" d="M133 82Q150 82 161 70T173 41Q173 24 162 12T133 0Q116 0 104 12T92 41Q92 58 104 70T133 82ZM100 630Q100 646 109 656T134 667Q150 667 159 657T169 630V227Q169 210 160 200T134 190Q119 190
110 200T100 227V630Z" />
<glyph unicode="&quot;" glyph-name="quotedbl" horiz-adv-x="357" d="M128 477Q128 471 127 462T124 443T116 428T100 422Q80 422 76 438T71 477L66 629Q65 648 74 657T100 667Q116 667 125 658T134 629L128 477ZM285 477Q285 471 284 462T281 443T273 428T257
422Q237 422 233 438T228 477L223 629Q222 648 231 657T257 667Q273 667 282 658T291 629L285 477Z" />
<glyph unicode="#" glyph-name="numbersign" horiz-adv-x="446" d="M293 50Q288 18 282 8T261 -2Q234 -2 234 31Q234 36 234 41T237 60L258 189Q260 201 261 205T265 221Q254 219 248 219H149L122 50Q117 18 111 9T91 -2Q78 -3 71 6T63 30Q63 36 63 39L67 60L87
189L94 221Q89 219 86 219H42Q38 219 32 221Q10 223 10 245Q10 266 31 269H39Q43 269 64 270H101L116 368Q118 379 118 384T123 399Q118 398 115 398H70Q66 398 59 400Q37 405 39 426Q41 445 57 447Q63 449 68 449H128L155 618Q160 647 167 658T188 669Q199 669
206 660T213 637Q213 632 213 625T210 607L189 478Q188 467 187 462T182 447Q193 449 198 449H299L326 618Q331 650 337 659T358 669Q370 669 377 660T385 637Q385 632 385 629T381 607L361 478Q359 467 358 462T353 447Q358 449 360 449H379Q399 449 403 449T415
447Q436 444 436 422Q436 408 425 403T382 398H348L333 300L326 269Q333 270 336 270H368Q409 270 409 243Q409 219 371 219H319L293 50ZM286 368Q288 379 289 384T293 399Q282 398 277 398H177L162 300Q160 289 158 284L154 269Q165 270 170 270H270L286 368Z"
/>
<glyph unicode="$" glyph-name="dollar" horiz-adv-x="446" d="M139 351Q84 389 59 424T34 502Q34 566 78 610T197 665V718Q197 735 206 745T232 755Q246 755 256 745T266 718V665Q296 661 322 653T367 634T397 611T408 586Q408 573 400 563T381 553Q368 553 343
567Q322 579 305 585T262 596Q265 585 265 579T266 559V347L328 306Q382 270 403 239T424 165Q424 102 383 60T266 4V-55Q266 -72 256 -82T232 -92Q216 -92 207 -82T197 -55V0Q164 3 133 12T76 33T36 61T21 91Q21 103 29 112T50 122Q54 122 58 122T69 118T88 110T123
94Q149 82 165 78T201 70Q198 81 198 85T197 102V310L139 351ZM197 551Q197 567 197 574T201 595Q153 585 128 563T103 508Q103 493 107 481T122 455T152 427T200 392Q199 406 199 416T198 435T197 455V551ZM263 266Q264 252 264 242T265 223T266 203V118Q266 102
266 95T262 73Q352 93 352 158Q352 182 336 204T284 250L275 257Q271 259 269 261T265 268L263 266Z" />
<glyph unicode="%" glyph-name="percent" horiz-adv-x="731" d="M196 668Q229 668 257 657T305 625T337 577T349 516Q349 483 338 456T306 408T257 376T196 364Q163 364 135 375T86 407T54 455T42 516Q42 548 53 576T86 624T135 656T196 668ZM196 599Q157 599
134 577T111 517Q111 479 134 456T196 433Q233 433 256 456T280 517Q280 554 257 576T196 599ZM536 650Q547 668 566 668Q581 668 591 658T601 632Q601 622 594 612L192 18Q180 0 162 0Q147 0 137 10T127 36Q127 45 134 56L536 650ZM536 304Q568 304 596 293T644
261T676 213T688 152Q688 119 677 92T645 44T596 12T536 0Q503 0 475 11T427 43T395 92T383 152Q383 185 394 212T426 260T475 292T536 304ZM536 235Q499 235 476 212T452 152Q452 114 475 92T536 69Q573 69 596 91T619 152Q619 189 596 212T536 235Z" />
<glyph unicode="&amp;" glyph-name="ampersand" horiz-adv-x="523" d="M117 412Q96 444 87 468T78 518Q78 551 90 578T123 625T171 656T230 667Q262 667 290 657T338 629T371 582T383 518Q383 451 332 400L259 326L348 191Q353 184 354 181T358 170Q360 174 364
178T375 187L429 234Q446 248 455 254T474 260Q493 260 500 250T507 229Q507 214 497 204T477 184L397 117L435 61Q442 52 444 46T446 31Q446 17 437 9T412 0Q401 0 394 4T379 22L354 58Q349 64 347 67L342 78L296 40Q270 19 240 9T186 -1Q146 -1 119 10T76 39T52
83T44 139Q44 168 57 201T96 261L167 336L117 412ZM228 248Q220 260 216 266L206 284Q198 273 194 269T178 254L145 219Q128 200 121 183T113 136Q113 104 133 86T191 68Q209 68 226 76T271 107L305 135L228 248ZM197 417Q205 405 208 400T217 382Q225 393 229
398T245 413L272 438Q286 451 300 471T314 524Q314 556 289 577T230 598Q196 598 172 577T147 524Q147 513 151 498T164 468L197 417Z" />
<glyph unicode="&apos;" glyph-name="quotesingle" horiz-adv-x="199" d="M128 477Q128 471 127 462T124 443T116 428T100 422Q80 422 76 438T71 477L66 629Q65 648 74 657T100 667Q116 667 125 658T134 629L128 477Z" />
<glyph unicode="(" glyph-name="parenleft" horiz-adv-x="248" d="M159 674Q172 674 180 665T189 642V632Q189 628 187 623Q184 611 179 593T165 548Q142 474 132 398T121 238Q121 153 132 76T168 -81Q180 -122 184 -139T189 -165Q189 -180 180 -189T157 -199Q132
-199 117 -154Q100 -96 88 -44T68 58Q64 80 61 105T56 155T53 203T52 245Q52 308 61 378T89 527Q100 572 111 607T133 658Q142 674 159 674Z" />
<glyph unicode=")" glyph-name="parenright" horiz-adv-x="249" d="M91 674Q117 674 132 629Q149 575 161 521T182 417Q189 372 193 320T197 229Q197 167 187 93T160 -52Q153 -78 146 -104T129 -156Q121 -179 112 -189T90 -199Q77 -199 68 -190T59 -167Q59 -158
62 -149Q65 -136 70 -117T83 -73Q106 1 117 76T128 237Q128 322 117 400T81 556Q69 596 65 613T60 640Q60 655 69 664T91 674Z" />
<glyph unicode="*" glyph-name="asterisk" horiz-adv-x="359" d="M144 524L73 563Q60 568 58 575T61 595Q66 604 77 605T99 600L164 555L160 647Q161 655 166 661T182 667Q202 667 202 647L200 556L271 602Q280 609 290 606T306 594Q309 587 307 579T295 565L220
524L296 480Q315 468 305 448V449Q300 441 289 440T267 444L200 490L202 403Q202 392 198 387T181 381Q161 382 161 403L162 490L97 443Q80 435 72 438T57 454Q55 459 61 468T79 485L144 524Z" />
<glyph unicode="+" glyph-name="plus" horiz-adv-x="446" d="M261 293Q261 285 261 282T258 271Q266 273 269 273H352Q377 273 384 272T397 266Q410 256 410 239Q410 229 406 221T393 208Q388 205 382 205T352 204H269Q266 204 258 206Q260 199 260 195T261 183V104Q261
94 261 85T256 69T245 57T223 52Q204 52 196 62T187 103V195Q187 199 189 206Q182 204 178 204H95Q70 204 64 205T51 211Q37 222 37 239Q37 259 54 269Q59 272 65 272T95 273H178Q182 273 189 271Q187 278 187 281V368Q187 392 188 398T194 412Q204 425 223 425Q245
425 256 408Q260 403 260 397T261 368V293Z" />
<glyph unicode="," glyph-name="comma" horiz-adv-x="172" d="M50 28Q58 58 65 68T90 79Q104 79 113 70T122 46Q122 39 120 29T116 10L94 -74Q91 -85 90 -91T87 -100T85 -104T83 -109Q79 -116 72 -120T55 -125Q41 -125 32 -116T22 -92Q22 -86 24 -74T28 -56L50 28Z" />
<glyph unicode="-" glyph-name="hyphen" horiz-adv-x="364" d="M278 282Q295 282 305 273T316 247Q316 232 306 223T278 213H84Q67 213 57 222T47 247Q47 263 57 272T84 282H278Z" />
<glyph unicode="." glyph-name="period" horiz-adv-x="181" d="M91 82Q108 82 120 70T132 41Q132 24 120 12T91 0Q73 0 61 12T49 41Q49 58 61 70T91 82Z" />
<glyph unicode="/" glyph-name="slash" horiz-adv-x="470" d="M359 647Q369 668 390 668Q404 668 415 659T426 639Q426 626 412 596L115 21Q104 0 83 0Q69 0 59 10T48 34Q48 43 53 53L359 647Z" />
<glyph unicode="0" glyph-name="zero" horiz-adv-x="446" d="M222 668Q259 668 292 651T350 596T389 494T403 338Q403 246 389 182T350 78T294 19T225 0Q187 0 154 18T97 77T58 182T43 338Q43 430 57 493T96 595T153 651T222 668ZM223 599Q200 599 183 585T154
548T134 496T121 438T114 381T112 334Q112 301 117 256T134 170T168 99T223 69Q245 69 262 83T291 120T312 172T325 230T332 287T334 335Q334 368 329 413T312 499T278 570T223 599Z" />
<glyph unicode="1" glyph-name="one" horiz-adv-x="446" d="M225 554L216 543Q213 540 209 536T197 523L173 499Q153 479 142 471T122 463Q110 463 100 473T89 496Q89 515 120 544L177 601Q199 622 212 635T235 655T250 664T262 667Q279 667 285 654T292 608V36Q292
20 282 10T258 0Q242 0 233 10T223 36V470Q223 484 224 496T226 520T229 552L225 554Z" />
<glyph unicode="2" glyph-name="two" horiz-adv-x="446" d="M151 67Q165 68 174 68T193 69H357Q374 69 384 60T394 35Q394 19 384 10T357 0H107Q83 0 70 7T56 27Q56 35 60 43T76 70L246 335L256 350Q293 409 310 444T327 507Q327 558 299 578T226 599Q194 599
172 586T131 537Q120 517 111 509T89 501Q74 501 65 510T56 535Q56 558 71 584T113 631Q139 651 169 659T231 668Q268 668 298 660T351 633T385 584T398 512Q398 474 381 430T335 344L200 140Q192 127 187 119T176 103T165 87T150 68L151 67Z" />
<glyph unicode="3" glyph-name="three" horiz-adv-x="446" d="M180 667Q280 667 330 629T381 499Q381 417 310 366Q348 341 365 304T382 209Q382 107 336 54T200 0H77Q60 0 50 9T40 35Q40 50 50 59T77 69H182Q236 69 262 84Q285 96 299 127T313 198Q313 329 193
329H149Q132 329 122 338T111 364Q111 379 121 388T149 398H192Q246 398 278 426T311 501Q311 529 298 551T262 583Q248 589 226 593T183 598H87Q70 598 60 607T50 632Q50 648 60 657T87 667H180Z" />
<glyph unicode="4" glyph-name="four" horiz-adv-x="446" d="M245 196Q253 196 256 196T268 193Q266 201 266 204T265 216V321Q265 337 274 347T300 357Q315 357 324 347T334 321V204Q334 201 332 193Q339 195 343 195T355 196H397Q414 196 424 186T434 162Q434
146 424 137T397 127H355Q347 127 343 127T332 130Q334 122 334 118V36Q334 20 325 10T300 0Q284 0 275 10T265 36V107Q265 115 265 118T268 130Q260 128 257 128T245 127H84Q31 127 31 160Q31 165 33 173T37 192L150 589Q155 608 158 618T163 634T166 642L170
649Q175 658 183 662T199 667Q214 667 222 658T230 634Q230 627 228 615T221 590L123 239Q118 222 116 215T108 194Q123 196 131 196H245Z" />
<glyph unicode="5" glyph-name="five" horiz-adv-x="446" d="M349 598H161Q158 598 150 600Q152 592 152 589T153 578V435Q153 427 153 424T150 412Q158 414 161 414T173 415H192Q289 415 333 366T378 210Q378 148 363 104T313 32Q272 0 208 0H99Q83 0 73 9T63
35Q63 50 73 59T99 69H197Q254 69 281 105T309 205Q309 253 302 280T275 322Q262 333 242 339T201 346H127Q84 346 84 389V624Q84 667 127 667H349Q366 667 376 658T387 632Q387 617 377 608T349 598Z" />
<glyph unicode="6" glyph-name="six" horiz-adv-x="446" d="M221 400Q315 400 356 355T398 210Q398 107 354 53T226 -1Q179 -1 142 18T86 72Q56 128 56 244Q56 303 63 353T84 445T121 524T175 593Q206 625 239 646T293 667Q307 667 318 657T329 633Q329 621 321
613T283 586Q263 573 247 562T219 537T195 510T173 476Q160 453 154 437T143 397Q155 399 161 399T181 400H221ZM136 331Q132 306 130 284T128 240V194Q128 165 132 146T144 110Q155 90 176 79T224 68Q281 68 305 99T329 203Q329 271 304 301T221 331H136Z" />
<glyph unicode="7" glyph-name="seven" horiz-adv-x="446" d="M232 70Q226 47 222 34T212 13T200 3T185 0Q170 0 161 9T151 32Q151 35 151 37T153 44T156 55T162 76L220 286Q225 303 227 310T234 331Q229 329 221 329H150Q133 329 123 338T113 364Q113 379 123
388T150 398H250L293 554Q298 571 300 577T308 598Q293 597 285 597H86Q69 597 59 606T49 632Q49 648 59 657T86 667H328Q384 667 384 637Q384 624 379 604L334 441Q329 425 327 418T320 397Q325 398 332 398H371Q387 398 397 389T407 364Q407 348 397 339T371
329H303L232 70Z" />
<glyph unicode="8" glyph-name="eight" horiz-adv-x="446" d="M384 477Q384 441 367 406T318 354Q358 334 375 298T392 210V176Q392 139 384 107T356 51T303 14T219 0Q172 0 140 13T87 50T58 106T49 176V210Q49 254 67 294T124 355Q89 372 73 407T57 477V509Q57
543 69 571T103 621T154 654T219 666Q300 666 342 623T384 509V477ZM128 479Q128 438 155 411T220 384Q260 384 286 410T313 477V509Q313 552 288 577T220 603Q180 603 154 577T128 509V479ZM120 181Q120 156 125 135T141 97T172 72T220 63Q251 63 271 72T302 97T317
134T321 180V210Q321 260 295 290T218 320Q170 320 145 290T120 210V181Z" />
<glyph unicode="9" glyph-name="nine" horiz-adv-x="446" d="M235 267Q141 267 100 312T58 457Q58 560 102 614T230 668Q278 668 314 649T370 595Q400 539 400 423Q400 303 372 220T280 74Q248 40 216 20T163 0Q149 0 138 10T127 34Q127 46 135 54T173 81Q193
93 209 105T237 129T261 157T284 191Q297 214 303 230T313 270Q301 268 295 268T275 267H235ZM320 336Q324 361 326 383T328 427V474Q328 503 325 522T312 558Q301 577 280 588T232 599Q175 599 151 568T127 464Q127 396 152 366T235 336H320Z" />
<glyph unicode=":" glyph-name="colon" horiz-adv-x="183" d="M95 82Q112 82 124 70T136 41Q136 24 124 12T95 0Q77 0 65 12T53 41Q53 58 65 70T95 82ZM95 384Q112 384 124 372T136 343Q136 326 124 314T95 302Q77 302 65 314T53 343Q53 360 65 372T95 384Z" />
<glyph unicode=";" glyph-name="semicolon" horiz-adv-x="185" d="M56 28Q64 58 71 68T96 79Q110 79 119 70T128 46Q128 39 127 29T123 10L100 -74Q97 -85 96 -91T93 -100T91 -104T89 -109Q85 -116 78 -120T61 -125Q47 -125 38 -116T28 -92Q28 -86 30 -74T34 -56L56
28ZM110 384Q127 384 139 372T151 343Q151 326 139 314T110 302Q92 302 80 314T68 343Q68 360 80 372T110 384Z" />
<glyph unicode="&lt;" glyph-name="less" horiz-adv-x="447" d="M142 235Q154 229 162 225T179 217T195 209T217 197L332 134Q363 116 372 108T381 86Q381 74 370 65T343 55Q327 55 290 76L116 174Q86 191 78 202T69 237Q69 248 70 256T77 271T92 284T116 299L290
397Q324 417 343 417Q359 417 370 408T381 386Q381 379 379 375T372 365T358 354T332 339L217 276Q204 269 196 264T179 256T163 248T142 238V235Z" />
<glyph unicode="=" glyph-name="equal" horiz-adv-x="446" d="M93 281Q84 281 75 281T59 285T47 295T42 315Q42 350 84 350H355Q364 350 372 350T388 346T400 335T405 315Q405 296 394 289T355 281H93ZM355 196Q363 196 372 196T388 192T400 182T405 162Q405 143
394 135T355 127H93Q74 127 58 131T42 162Q42 181 53 188T93 196H355Z" />
<glyph unicode="&gt;" glyph-name="greater" horiz-adv-x="446" d="M305 238Q293 244 285 248T268 255T252 264T230 276L116 339Q99 348 90 354T75 365T69 374T67 386Q67 399 78 408T104 417Q123 417 157 397L331 299Q346 290 355 284T370 271T376 256T378 237Q378
214 370 203T331 174L157 76Q137 65 125 60T104 55Q89 55 78 64T67 87Q67 93 68 98T75 108T90 119T116 134L230 197Q243 204 251 208T268 217T284 225T305 235V238Z" />
<glyph unicode="?" glyph-name="question" horiz-adv-x="419" d="M248 229Q248 213 239 203T213 193Q198 193 189 203T179 229V317Q179 363 191 386Q194 393 198 398T210 410T230 426T264 450Q290 468 300 484T311 526Q311 555 292 576T228 598Q195 598 178 591T149
574T126 558T94 550Q82 550 73 559T64 583Q64 599 79 614T118 641T170 660T224 667Q265 667 294 656T343 627T371 582T380 525Q380 492 371 469T344 427Q340 423 340 422T337 420T329 414T310 399L272 372Q248 355 248 315V229ZM213 82Q230 82 242 70T254 41Q254
24 242 12T213 0Q196 0 185 12T173 41Q173 58 184 70T213 82Z" />
<glyph unicode="@" glyph-name="at" horiz-adv-x="921" d="M619 154Q619 108 629 89T671 69Q699 69 713 74T735 96T743 144T744 225V349Q744 408 740 451T713 521T646 562T519 575H500Q422 575 369 569T282 548T229 510T202 452T192 371T190 265V194Q190 102 198
45T232 -44T302 -87T421 -98H631Q653 -98 660 -108T668 -135Q668 -167 631 -167H430Q327 -167 266 -149T172 -88T129 23T119 193V276Q119 386 131 457T184 569T299 626T499 642H517Q617 642 676 625T765 569T804 468T813 316V196Q813 154 810 118T793 56T752 15T678
0Q648 0 621 9T581 51Q571 39 560 30T533 14T498 4T450 0Q426 0 400 6T352 27T315 69T300 136V316Q300 355 306 383T329 429T373 456T443 465H545Q586 465 602 447T619 393V154ZM550 155V386Q550 390 552 398Q545 396 541 396H438Q396 396 383 376T369 309V153Q369
109 386 90T451 70Q487 70 506 74T536 89T548 115T550 155Z" />
<glyph unicode="A" glyph-name="A" horiz-adv-x="510" d="M132 160L87 25Q79 -1 53 -1Q39 -1 29 9T19 34Q19 37 21 47L215 624Q223 647 232 657T255 667Q272 667 279 659T295 623L483 46Q486 40 486 34Q486 20 476 10T451 -1Q425 -1 417 25L372 160H132ZM171 278Q168
269 166 263T161 252T157 241T151 228Q168 229 177 229H327Q333 229 339 229T353 228Q347 243 344 251T335 277L294 403Q287 426 282 441T273 470T266 499T257 535H253Q247 514 243 499T235 471T226 442T213 404L171 278Z" />
<glyph unicode="B" glyph-name="B" horiz-adv-x="540" d="M260 667Q305 667 342 659T405 631T447 580T462 504Q462 467 448 430T403 366Q450 337 472 294T494 197Q494 124 460 80T368 16Q347 8 316 4T255 0H133Q109 0 100 9T91 43V624Q91 648 100 657T133 667H260ZM160
90Q160 82 160 78T157 67Q165 69 168 69H274Q301 69 328 77T376 102T411 143T425 199Q425 216 419 235T402 272T375 305T340 329H180Q172 329 169 329T157 332Q159 324 159 321T160 309V90ZM160 418Q160 410 160 407T157 396Q165 398 168 398H342Q356 406 366 419T382
446T390 475T393 502Q393 548 361 573T268 598H168Q165 598 157 600Q159 592 159 589T160 577V418Z" />
<glyph unicode="C" glyph-name="C" horiz-adv-x="417" d="M365 667Q382 667 392 658T403 632Q403 617 393 608T365 598H236Q178 598 155 571T132 479V188Q132 122 155 96T236 69H365Q382 69 392 60T403 35Q403 19 393 10T365 0H246Q63 0 63 176V491Q63 585 118
631Q161 667 246 667H365Z" />
<glyph unicode="D" glyph-name="D" horiz-adv-x="560" d="M309 667Q365 667 398 657T457 620Q478 597 487 568T496 491V176Q496 129 487 99T457 47Q432 21 399 11T309 0H133Q109 0 100 9T91 43V624Q91 648 100 657T133 667H309ZM322 598H169Q165 598 157 600Q159
592 159 589T160 577V90Q160 82 160 78T157 67Q165 69 169 69H322Q379 69 403 96T427 188V479Q427 544 403 571T322 598Z" />
<glyph unicode="E" glyph-name="E" horiz-adv-x="446" d="M160 418Q160 410 160 407T157 396Q165 398 168 398H319Q336 398 346 389T357 364Q357 348 347 339T319 329H169Q165 329 157 331Q159 324 159 321T160 309V90Q160 82 160 78T157 67Q165 69 168 69H387Q403
69 413 60T424 35Q424 19 414 10T387 0H133Q109 0 100 9T91 43V624Q91 648 100 657T133 667H387Q403 667 413 658T424 632Q424 617 414 608T387 598H168Q165 598 157 600Q159 592 159 589T160 577V418Z" />
<glyph unicode="F" glyph-name="F" horiz-adv-x="446" d="M159 588V407Q159 404 157 396Q164 398 167 398H386Q402 398 412 389T423 364Q423 348 413 339T386 329H168Q164 329 157 331Q159 324 159 320V36Q159 20 150 10T125 0Q109 0 100 10T90 36V624Q90 648
99 657T133 667H386Q402 667 412 658T423 632Q423 617 413 608T386 598H167Q164 598 157 600Q159 592 159 588Z" />
<glyph unicode="G" glyph-name="G" horiz-adv-x="528" d="M238 69H391Q395 69 403 67Q401 74 401 77T400 89V311Q400 319 400 322T403 333Q395 331 391 331H338Q322 331 312 340T301 366Q301 381 311 390T338 400H427Q469 400 469 354V46Q469 20 460 10T427 0H252Q207
0 178 7T126 29Q94 52 79 87T64 177V490Q64 581 109 624T252 667H431Q448 667 458 658T469 632Q469 617 459 608T431 598H238Q181 598 157 572T133 479V187Q133 122 157 96T238 69Z" />
<glyph unicode="H" glyph-name="H" horiz-adv-x="586" d="M404 402Q412 402 415 402T427 399Q425 407 425 410T424 422V631Q424 647 433 657T459 667Q473 667 483 657T493 631V36Q493 20 483 10T459 0Q443 0 434 10T424 36V313Q424 321 424 324T427 336Q419 334
416 334T404 333H181Q173 333 169 333T157 336Q159 328 159 325T160 313V36Q160 20 151 10T125 0Q110 0 101 10T91 36V631Q91 647 100 657T125 667Q141 667 150 657T160 631V422Q160 414 160 411T157 399Q165 401 169 401T181 402H404Z" />
<glyph unicode="I" glyph-name="I" horiz-adv-x="253" d="M91 631Q91 647 100 657T125 667Q141 667 150 657T160 631V36Q160 20 151 10T125 0Q110 0 101 10T91 36V631Z" />
<glyph unicode="J" glyph-name="J" horiz-adv-x="354" d="M206 631Q206 647 216 657T241 667Q255 667 265 657T275 631V176Q275 100 249 62Q208 0 111 0H42Q25 0 15 9T5 35Q5 50 15 59T42 69H123Q143 69 159 77T187 100Q198 115 202 133T206 188V631Z" />
<glyph unicode="K" glyph-name="K" horiz-adv-x="517" d="M473 69Q473 68 474 66T478 58Q484 46 485 42T487 32Q487 18 477 8T453 -2Q433 -2 421 20Q419 22 419 22T416 28L413 36L411 38L409 42L407 45L266 316Q258 330 255 336T246 357Q236 346 231 341T213 325L157
273V36Q157 20 148 10T123 0Q107 0 98 10T88 36V631Q88 647 97 657T123 667Q138 667 147 657T157 631V444Q157 430 157 418T155 393T153 361L157 359Q169 374 177 383T193 402T211 421T236 446L440 657Q452 669 467 669Q481 669 491 659T502 634Q502 626 499 621T489
607L295 407L473 69Z" />
<glyph unicode="L" glyph-name="L" horiz-adv-x="433" d="M160 89Q160 81 160 78T157 67Q165 69 168 69H387Q403 69 413 60T424 35Q424 19 414 10T387 0H133Q109 0 100 9T91 43V631Q91 647 100 657T125 667Q141 667 150 657T160 631V89Z" />
<glyph unicode="M" glyph-name="M" horiz-adv-x="663" d="M293 422Q304 404 311 392T330 357L367 422L498 639Q515 668 535 668Q570 668 570 604V36Q570 20 561 10T535 0Q520 0 511 10T501 36V408Q501 426 502 442T503 475T506 516L502 518Q493 499 487 486T473
460T459 435T439 403L378 301Q363 277 353 268T330 259Q318 259 308 268T283 301L221 403Q209 422 202 435T188 460T175 485T159 518L155 516Q156 492 157 475T159 442T160 408V36Q160 20 151 10T125 0Q110 0 101 10T91 36V604Q91 668 125 668Q144 668 163 639L293
422Z" />
<glyph unicode="N" glyph-name="N" horiz-adv-x="588" d="M155 519Q156 494 157 477T159 443T160 407V36Q160 20 151 10T125 0Q110 0 101 10T91 36V604Q91 667 124 667Q146 667 162 641L356 296Q369 272 378 256T394 226T409 196T428 157H432Q430 182 430 200T428
234T427 269V631Q427 647 436 657T462 667Q477 667 486 657T496 631V64Q496 0 462 0Q450 0 442 8T420 39L231 380Q218 404 209 420T192 451L177 482Q169 498 158 521L155 519Z" />
<glyph unicode="O" glyph-name="O" horiz-adv-x="518" d="M461 207Q461 163 446 125T403 60T339 16T261 0Q204 0 157 27T83 102Q69 128 63 156T56 223V447Q56 484 62 512T83 565Q109 612 157 639T261 667Q303 667 339 651T403 608T445 542T461 460V207ZM125 223Q125
178 137 148T172 99Q211 69 259 69Q296 69 326 86T374 133Q384 150 388 170T392 217V450Q392 504 374 534Q357 564 326 581T258 598Q222 598 192 582T145 536Q125 501 125 446V223Z" />
<glyph unicode="P" glyph-name="P" horiz-adv-x="526" d="M180 261Q172 261 169 261T157 264Q159 256 159 253T160 242V36Q160 20 151 10T125 0Q110 0 101 10T91 36V624Q91 648 100 657T133 667H280Q330 667 366 655T432 616Q465 587 482 547T500 461Q500 417
485 380T442 317T376 276T293 261H180ZM160 350Q160 342 160 339T157 327Q165 329 168 329T180 330H283Q315 330 336 335T376 353Q402 371 416 400T431 464Q431 501 415 531T369 578Q334 598 279 598H168Q165 598 157 600Q159 592 159 589T160 577V350Z" />
<glyph unicode="Q" glyph-name="Q" horiz-adv-x="521" d="M485 84Q500 72 508 66T520 54T525 44T527 32Q525 18 516 10T493 1Q485 1 476 6T444 29L403 60Q345 0 260 0Q204 0 157 27T83 102Q69 128 63 156T56 223V447Q56 484 62 512T83 565Q109 611 157 639T261
667Q303 667 339 651T403 608T445 542T461 460V207Q461 183 457 162T442 118L485 84ZM125 223Q125 178 137 148T172 99Q211 69 259 69Q285 69 309 79T349 104L300 141Q273 163 265 172T257 193Q257 207 267 217T290 228Q299 228 307 223T338 199L388 160Q390 174
391 188T392 217V450Q392 504 374 534Q357 564 326 581T258 598Q222 598 192 582T145 536Q125 501 125 446V223Z" />
<glyph unicode="R" glyph-name="R" horiz-adv-x="530" d="M483 65Q489 52 491 45T493 30Q493 17 485 9T462 0Q447 0 437 15Q432 23 424 35T413 53L312 265Q280 263 246 262T180 261Q172 261 169 261T157 264Q159 256 159 253T160 242V36Q160 20 151 10T125 0Q110
0 101 10T91 36V624Q91 648 100 657T133 667H280Q382 667 440 614T499 463Q499 433 492 404T469 351T430 309T377 280L483 65ZM160 350Q160 342 160 339T157 327Q165 329 168 329T180 330H283Q352 330 391 365T430 465Q430 534 393 566T284 598H168Q165 598 157
600Q159 592 159 589T160 577V350Z" />
<glyph unicode="S" glyph-name="S" horiz-adv-x="470" d="M148 345Q89 374 67 414T45 505Q45 541 59 570T98 621T159 655T239 667Q272 667 304 660T361 642T403 616T419 586Q419 573 411 563T392 553Q379 553 354 567Q327 583 300 590T239 598Q171 598 143 570T114
505Q114 468 129 447T180 407L333 328Q393 297 413 257T434 168Q434 128 419 97T377 44T312 11T228 0Q193 0 158 8T95 30T49 60T31 92Q31 105 40 115T60 126Q79 126 92 117T122 98T164 78T233 69Q291 69 328 93T365 164Q365 192 352 220T294 271L148 345Z" />
<glyph unicode="T" glyph-name="T" horiz-adv-x="426" d="M176 577Q176 585 176 588T179 600Q171 598 167 598H36Q20 598 10 607T0 632Q0 648 10 657T36 667H387Q403 667 413 658T424 632Q424 617 414 608T387 598H255Q252 598 245 600Q247 592 247 588V36Q247
20 238 10T212 0Q195 0 186 10T176 36V577Z" />
<glyph unicode="U" glyph-name="U" horiz-adv-x="560" d="M77 631Q77 647 87 657T112 667Q127 667 136 657T146 631V221Q146 182 153 159T179 114Q216 69 280 69Q342 69 381 114Q400 135 407 158T414 221V631Q414 647 423 657T448 667Q464 667 473 657T483 631V223Q483
173 474 140T444 78Q417 41 374 21T280 0Q230 0 187 20T116 78Q95 107 86 140T77 223V631Z" />
<glyph unicode="V" glyph-name="V" horiz-adv-x="511" d="M256 120Q261 142 265 156T273 185T281 214T294 253L421 642Q429 668 454 668Q469 668 479 658T489 632Q489 627 487 621L288 27Q284 15 275 8T253 0Q242 0 233 8T220 28L20 621Q18 629 18 632Q17 646
27 657T52 668Q78 668 86 642L213 253Q221 230 226 215T235 185T242 157T252 120H256Z" />
<glyph unicode="W" glyph-name="W" horiz-adv-x="644" d="M193 156Q199 178 203 193T211 222T221 253T234 292L277 415Q282 430 284 438T288 450T291 456L294 461Q303 471 320 471Q339 471 346 461Q348 458 349 456T351 450L356 438Q359 430 365 415L406 292Q414
269 419 253T429 223T437 193T447 156H452Q455 180 457 197T463 229T469 262T479 306L551 639Q554 652 563 660T586 668Q600 668 610 658T621 635Q621 633 621 631T619 624L495 46Q490 20 481 10T457 -1Q449 -1 444 0T435 7T426 24T413 57L361 211Q353 234 348
249T339 277T331 305T322 341H318Q313 320 309 306T302 278T293 249T280 211L228 57Q220 37 215 26T206 8T196 1T183 -1Q156 -1 146 46L21 624Q20 628 20 634Q20 648 30 658T55 668Q68 668 77 660T90 639L162 306Q168 280 171 263T178 230T183 197T189 156H193Z"
/>
<glyph unicode="X" glyph-name="X" horiz-adv-x="511" d="M482 55Q489 47 489 35Q489 20 479 10T455 -1Q436 -1 425 17L288 219L255 270Q250 262 247 257T240 246T233 234T222 219L86 17Q75 -1 56 -1Q41 -1 31 9T21 35Q21 45 28 55L213 330L23 612Q16 622 16 632Q16
648 26 658T51 668Q70 668 81 650L222 440Q228 431 232 425T240 414T246 403T255 389L288 440L430 650Q441 668 461 668Q475 668 484 658T494 633Q494 620 487 612L297 330L482 55Z" />
<glyph unicode="Y" glyph-name="Y" horiz-adv-x="511" d="M290 36Q290 20 281 10T255 0Q240 0 231 10T221 36V325L23 612Q16 622 16 632Q16 647 26 657T51 668Q70 668 81 650L222 441Q234 424 239 416T255 390Q265 407 270 415T288 441L430 650Q441 668 460 668Q474
668 484 658T494 633Q494 620 487 612L290 325V36Z" />
<glyph unicode="Z" glyph-name="Z" horiz-adv-x="440" d="M291 532Q302 550 309 562T331 598Q305 597 290 597H54Q37 597 27 606T17 632Q17 648 27 657T54 667H356Q391 667 406 661T422 639Q422 624 408 599L150 135L111 69Q136 70 151 70H387Q404 70 414 61T424
36Q424 19 414 10T387 0H68Q20 0 20 30Q20 39 23 47T37 76L291 532Z" />
<glyph unicode="[" glyph-name="bracketleft" horiz-adv-x="261" d="M124 -103Q124 -111 124 -114T121 -125Q127 -123 130 -123H187Q204 -123 214 -132T224 -157Q224 -173 214 -182T187 -192H109Q77 -192 66 -179T55 -130V605Q55 641 66 654T109 667H187Q203 667
213 658T224 632Q224 617 214 608T187 598H130Q127 598 121 600Q123 592 123 589T124 577V-103Z" />
<glyph unicode="\" glyph-name="backslash" horiz-adv-x="470" d="M61 596Q54 611 51 620T47 636Q47 650 57 659T83 668Q103 668 114 647L421 44Q426 34 426 25Q426 11 416 1T391 -9Q369 -9 359 12L61 596Z" />
<glyph unicode="]" glyph-name="bracketright" horiz-adv-x="261" d="M137 577Q137 585 137 588T140 600Q134 598 131 598H74Q58 598 48 607T37 632Q37 648 47 657T74 667H152Q184 667 195 654T206 605V-130Q206 -166 195 -179T152 -192H74Q58 -192 48 -183T37
-157Q37 -142 47 -133T74 -123H131Q134 -123 140 -125Q138 -118 138 -115T137 -103V577Z" />
<glyph unicode="^" glyph-name="asciicircum" horiz-adv-x="446" d="M221 607L211 582Q207 572 203 563T193 542L180 515L114 374Q108 361 104 354T96 342T89 337T79 336Q68 336 60 344T51 366Q51 373 53 379T65 405L172 626Q179 640 183 648T193 661T205 666T223
667Q233 667 239 666T251 661T260 649T273 626L380 405Q388 388 390 381T393 366Q394 354 385 345T365 335Q354 335 349 341T331 374L264 515Q256 531 251 542T242 562T234 582L224 607H221Z" />
<glyph unicode="_" glyph-name="underscore" horiz-adv-x="359" d="M359 -270Q379 -270 384 -270T396 -273Q404 -275 409 -281T415 -296Q415 -304 410 -310T396 -319Q389 -321 384 -321T359 -322H0Q-21 -322 -26 -322T-38 -319Q-46 -317 -51 -311T-56 -296Q-56
-288 -51 -282T-38 -273Q-31 -271 -26 -271T0 -270H359Z" />
<glyph unicode="`" glyph-name="grave" horiz-adv-x="500" d="M163 692Q165 703 172 712T195 721Q208 721 215 715L233 701L325 605Q337 594 337 580Q337 563 328 555T306 547Q298 547 290 549T274 563L179 659Q163 675 163 692Z" />
<glyph unicode="a" glyph-name="a" horiz-adv-x="442" d="M287 275Q295 275 298 275T309 272Q307 277 307 280V302Q307 360 291 383T235 406H106Q89 406 79 415T68 440Q68 456 78 465T106 475H222Q302 475 339 438T376 321V62Q376 27 367 14T332 0H213Q182 0 151
4T96 23T56 65T40 136Q40 200 82 236T193 275H287ZM287 72Q295 72 298 72T309 69Q307 77 307 80V197Q307 201 309 209Q302 207 299 207T287 206H216Q163 206 138 188T113 134Q113 103 137 88T201 72H287Z" />
<glyph unicode="b" glyph-name="b" horiz-adv-x="478" d="M144 494Q144 487 144 484T141 472Q149 474 152 474T164 475H260Q352 475 389 422Q400 406 406 380T412 321V154Q412 116 405 90T381 44Q361 20 333 10T254 0H117Q93 0 84 9T75 43V631Q75 647 84 657T109
667Q125 667 134 657T144 631V494ZM254 406H152Q149 406 141 408Q143 400 143 397T144 385V90Q144 82 144 78T141 67Q149 69 152 69H254Q302 69 322 90T343 158V317Q343 363 323 384T254 406Z" />
<glyph unicode="c" glyph-name="c" horiz-adv-x="354" d="M299 475Q314 475 325 465T336 441Q336 427 326 417T301 406H217Q171 406 153 386T134 317V158Q134 108 152 89T217 69H301Q315 69 325 59T336 34Q336 20 325 10T299 0H212Q65 0 65 154V321Q65 475 212 475H299Z" />
<glyph unicode="d" glyph-name="d" horiz-adv-x="478" d="M314 475Q321 475 324 475T336 472Q334 480 334 483T333 494V631Q333 647 342 657T368 667Q382 667 392 657T402 631V43Q402 19 393 10T359 0H222Q172 0 144 10T95 44Q79 64 72 90T65 154V321Q65 402 101
438Q141 475 218 475H314ZM333 385Q333 393 333 396T336 408Q328 406 324 406H223Q176 406 155 385T134 317V158Q134 112 155 91T223 69H324Q328 69 336 67Q334 74 334 78T333 90V385Z" />
<glyph unicode="e" glyph-name="e" horiz-adv-x="423" d="M333 204H129Q126 204 118 206Q120 199 120 197T121 187V169Q121 139 125 120T139 90T166 74T210 69H344Q361 69 371 60T381 35Q381 19 371 10T344 0H209Q157 0 126 10T78 46Q68 60 64 75T55 116Q53 128
53 138T52 156V302Q52 339 64 370T98 425T150 461T215 475Q262 475 293 460T344 418T372 357T380 284Q380 258 379 243T372 219T357 207T333 204ZM293 273Q299 273 302 273T311 269V283Q311 349 288 377T216 406Q121 406 121 285V268Q126 271 130 271T139 273H293Z"
/>
<glyph unicode="f" glyph-name="f" horiz-adv-x="270" d="M76 385Q76 393 76 396T79 408Q74 406 70 406H37Q20 406 10 416T-1 440Q-1 456 9 465T37 475H61Q67 475 70 475T79 472Q77 479 77 489T76 502V555Q76 612 110 639T205 667Q247 667 263 657T280 629Q280
609 269 602T239 594Q228 594 214 596T189 598Q160 598 153 582T145 525V497Q145 493 145 484T142 471Q150 474 154 474T167 475H224Q240 475 250 466T261 440Q261 425 251 416T224 406H153Q150 406 142 408Q144 400 144 397T145 385V36Q145 20 135 10T111 0Q95
0 86 10T76 36V385Z" />
<glyph unicode="g" glyph-name="g" horiz-adv-x="479" d="M334 -15Q334 -9 334 -6T337 3Q329 1 326 1T314 0H223Q173 0 145 10T96 44Q80 64 73 90T66 154V321Q66 402 102 438Q142 475 219 475H334Q376 475 389 464T403 416V-35Q403 -119 367 -155T245 -192H101Q87
-192 76 -182T65 -157Q65 -142 76 -133T105 -123H246Q273 -123 290 -119T317 -103T330 -72T334 -20V-15ZM334 385Q334 393 334 396T337 408Q329 406 325 406H224Q177 406 156 385T135 317V158Q135 112 156 91T224 69H325Q329 69 337 67Q335 74 335 78T334 90V385Z"
/>
<glyph unicode="h" glyph-name="h" horiz-adv-x="479" d="M247 406H152Q149 406 141 408Q143 400 143 397T144 385V36Q144 19 135 10T109 0Q95 0 85 9T75 34V631Q75 647 84 657T109 667Q125 667 134 657T144 631V494Q144 487 144 484T141 472Q149 474 152 474T164
475H263Q310 475 338 463T387 421Q412 384 412 302V36Q412 19 402 10T378 0Q362 0 353 9T343 36V297Q343 330 339 351T325 384T295 401T247 406Z" />
<glyph unicode="i" glyph-name="i" horiz-adv-x="220" d="M76 438Q76 455 85 465T110 475Q126 475 135 465T145 438V36Q145 20 136 10T110 0Q95 0 86 10T76 36V438ZM61 625Q61 645 74 658T108 672Q128 672 141 658T155 624Q155 605 142 592T108 578Q88 578 75
591T61 625Z" />
<glyph unicode="j" glyph-name="j" horiz-adv-x="220" d="M75 438Q75 455 84 465T109 475Q125 475 134 465T144 438V-20Q144 -49 141 -77T131 -121Q118 -153 81 -172T-10 -192Q-64 -192 -64 -157Q-64 -126 -25 -123Q-10 -122 -2 -122T11 -121T17 -121T21 -119Q35
-115 45 -109T62 -91T72 -61T75 -13V438ZM61 625Q61 645 74 658T108 672Q128 672 141 658T155 624Q155 605 142 592T108 578Q88 578 75 591T61 625Z" />
<glyph unicode="k" glyph-name="k" horiz-adv-x="423" d="M390 82Q410 44 410 25Q410 15 401 8T378 0Q357 0 345 24L233 240Q227 252 225 258T217 275L204 262Q200 258 189 249L144 213V36Q144 20 135 10T109 0Q94 0 85 10T75 36V631Q75 647 84 657T109 667Q125
667 134 657T144 631V366Q144 355 144 345T143 325T141 298L143 297Q155 307 163 314T179 327T196 341T219 359L335 450Q345 458 352 463T363 471T372 475T381 476Q395 476 404 468T413 445Q413 433 408 425T387 404L273 314L390 82Z" />
<glyph unicode="l" glyph-name="l" horiz-adv-x="225" d="M70 631Q70 647 79 657T105 667Q119 667 129 657T139 631V149Q139 127 140 114T147 91T162 75T189 58Q204 49 204 33Q204 18 195 9T172 0Q152 0 130 12T94 41Q80 58 75 80T70 137V631Z" />
<glyph unicode="m" glyph-name="m" horiz-adv-x="602" d="M466 311Q466 341 461 360T442 389T402 402T334 406Q337 400 337 397T338 386V36Q338 20 329 10T304 0Q289 0 279 10T269 36V396Q269 400 271 408Q264 406 260 406H153Q149 406 141 408Q143 400 143 397T144
385V36Q144 20 135 10T109 0Q94 0 85 10T75 36V419Q75 452 89 463T146 475H360Q420 475 452 465T505 431Q535 395 535 325V36Q535 20 526 10T501 0Q485 0 476 10T466 36V311Z" />
<glyph unicode="n" glyph-name="n" horiz-adv-x="479" d="M247 406H152Q149 406 141 408Q143 400 143 397T144 385V36Q144 20 135 10T109 0Q94 0 85 10T75 36V425Q75 454 87 464T135 475H262Q353 475 387 423Q398 406 405 373T412 302V36Q412 20 402 10T378 0Q362
0 353 10T343 36V297Q343 329 339 350T324 383T295 401T247 406Z" />
<glyph unicode="o" glyph-name="o" horiz-adv-x="440" d="M49 291Q49 332 61 366T95 424T149 461T220 475Q259 475 290 462T344 424T379 366T391 291V184Q391 143 379 109T345 51T291 14T220 0Q181 0 150 13T96 51T61 109T49 184V291ZM118 203Q118 138 144 104T220
69Q269 69 295 103T322 203V269Q322 406 221 406Q118 406 118 269V203Z" />
<glyph unicode="p" glyph-name="p" horiz-adv-x="478" d="M164 0Q156 0 153 0T141 3Q143 -5 143 -8T144 -20V-155Q144 -172 135 -182T109 -192Q94 -192 85 -182T75 -155V405Q75 426 77 440T86 461T103 472T133 475H254Q301 475 329 466T376 434Q412 394 412 321V154Q412
75 375 38T260 0H164ZM144 90Q144 82 144 78T141 67Q149 69 152 69H254Q306 69 324 88T343 158V317Q343 368 325 387T254 406H152Q149 406 141 408Q143 400 143 397T144 385V90Z" />
<glyph unicode="q" glyph-name="q" horiz-adv-x="479" d="M334 -155V-8Q334 -5 336 3Q328 1 325 1T313 0H218Q139 0 102 38T65 157V321Q65 359 73 386T100 434Q120 456 147 465T222 475H344Q380 475 391 462T403 405V-155Q403 -172 394 -182T368 -192Q353 -192
344 -182T334 -155ZM223 69H325Q328 69 336 67Q334 74 334 78V396Q334 400 336 408Q328 406 325 406H223Q172 406 153 387T134 317V152Q134 105 153 87T223 69Z" />
<glyph unicode="r" glyph-name="r" horiz-adv-x="333" d="M202 406H152Q149 406 141 408Q143 400 143 397T144 385V36Q144 20 135 10T109 0Q94 0 85 10T75 36V423Q75 452 85 463T125 475H236Q293 475 318 452T343 366Q343 352 335 342T312 331Q293 331 284 342T269
385Q266 402 247 404T202 406Z" />
<glyph unicode="s" glyph-name="s" horiz-adv-x="380" d="M116 355Q116 327 130 313T174 288L230 268Q291 247 317 218T344 139Q344 105 333 79T301 36T251 9T188 0Q142 -1 112 6T63 26T37 53T29 81Q29 95 38 105T63 117Q75 117 80 114T90 105T99 93T114 81T143
72T193 69Q228 70 252 85T275 133Q274 159 260 174T216 200L140 228Q124 234 108 242T79 265T56 299T47 349Q46 411 86 442T193 475Q220 475 244 473T286 463T316 446T328 419Q328 404 321 394T293 383Q283 383 277 387T260 395T234 403T189 406Q152 405 134 392T116
355Z" />
<glyph unicode="t" glyph-name="t" horiz-adv-x="253" d="M234 406H179Q176 406 168 408Q170 400 170 397T171 385V36Q171 20 161 10T137 0Q121 0 112 10T102 36V385Q102 393 102 396T105 408Q100 406 96 406H57Q40 406 30 415T20 440Q20 455 30 465T57 475H87Q93
475 96 475T105 472Q103 480 103 483T102 494V601Q102 617 111 627T137 637Q151 637 161 627T171 601V494Q171 487 171 484T168 472Q176 474 179 474T191 475H234Q251 475 261 466T271 440Q271 425 261 416T234 406Z" />
<glyph unicode="u" glyph-name="u" horiz-adv-x="479" d="M224 69H326Q329 69 337 67Q335 74 335 78T334 90V438Q334 455 344 465T369 475Q384 475 393 465T403 438V50Q403 22 393 11T356 0H215Q173 0 144 11T98 43T74 95T66 167V438Q66 455 75 465T100 475Q116
475 125 465T135 438V178Q135 147 138 126T151 93T178 75T224 69Z" />
<glyph unicode="v" glyph-name="v" horiz-adv-x="380" d="M195 128Q200 150 203 165T211 195T219 225T232 264L291 450Q295 462 302 469T325 476Q339 476 349 470T360 449Q360 441 359 437T357 429L237 46Q229 20 219 10T192 0Q176 0 168 10T151 46L23 429Q22
432 21 435T20 445Q20 458 29 467T55 476Q70 476 77 469T89 450L153 264Q160 241 165 225T174 195T182 166T192 128H195Z" />
<glyph unicode="w" glyph-name="w" horiz-adv-x="509" d="M167 128Q170 144 172 155T177 176T183 197T191 224L217 307Q228 344 254 344Q266 344 276 335T292 307L318 224Q323 208 326 197T331 176T336 155T342 128H347Q351 152 354 169T360 201T367 234T378 277L421
447Q429 477 455 477Q469 477 479 467T489 442Q489 435 488 431L388 30Q380 0 357 0Q343 0 335 7T320 33L286 126Q280 144 276 156T268 178T262 200T254 229H251Q247 212 244 201T238 179T231 156L221 126L189 33Q178 0 153 0Q128 0 121 30L21 431Q20 435 20 442Q20
456 30 466T54 477Q81 477 89 447L131 277Q137 251 141 234T149 202T155 169T163 128H167Z" />
<glyph unicode="x" glyph-name="x" horiz-adv-x="380" d="M28 420Q21 431 21 440Q21 456 31 466T56 476Q74 476 86 458L155 352Q162 341 166 335T173 322L180 310Q184 304 189 295Q194 304 197 310L204 322Q208 328 212 334T224 352L293 458Q305 476 323 476Q337
476 347 466T357 440Q357 435 356 430T350 420L231 235L347 55Q354 45 354 35Q354 20 344 10T319 -1Q300 -1 289 17L224 117Q217 128 213 134T205 147T199 159T189 174Q184 165 181 159T174 147T166 134T155 117L90 17Q79 -1 60 -1Q45 -1 35 9T25 35Q25 44 32 55L148
235L28 420Z" />
<glyph unicode="y" glyph-name="y" horiz-adv-x="380" d="M16 425Q14 430 13 435T12 446Q12 459 22 467T48 476Q64 476 70 469T81 450L165 230Q169 219 174 203T184 173Q189 155 195 138H199Q204 159 210 182Q215 202 222 224T237 270L301 450Q306 462 312 469T334
476Q348 476 358 469T369 447Q369 439 368 435T366 428L185 -85Q165 -144 141 -168T76 -192Q53 -192 40 -184T27 -159Q27 -147 32 -140T45 -130T62 -126T80 -125Q93 -124 100 -117T115 -90L164 55L16 425Z" />
<glyph unicode="z" glyph-name="z" horiz-adv-x="377" d="M116 67Q130 68 139 68T158 69H320Q337 69 347 60T357 35Q357 19 347 10T320 0H96Q20 0 20 35Q20 43 23 50T38 76L213 334Q222 347 228 356L239 372Q244 380 249 387T264 406L263 408Q249 407 240 407T221
406H57Q40 406 30 415T20 440Q20 456 30 465T57 475H312Q357 475 357 444Q357 433 352 422T330 385L166 141Q157 128 151 120T140 104T130 88T115 69L116 67Z" />
<glyph unicode="{" glyph-name="braceleft" horiz-adv-x="295" d="M111 237Q147 220 161 195T176 121V-38Q176 -85 190 -106T237 -130Q250 -132 259 -141T268 -161Q268 -175 257 -183T227 -192Q163 -192 133 -159Q120 -144 114 -114T107 -44V117Q107 151 99 169T72
199Q58 206 54 213T50 235Q50 254 54 261T72 277Q91 288 99 306T107 358V518Q107 591 127 625Q139 645 165 656T223 667Q268 667 268 636Q268 626 264 621T252 612T237 606T220 602Q176 592 176 514V354Q176 306 162 281T111 239V237Z" />
<glyph unicode="|" glyph-name="bar" horiz-adv-x="211" d="M76 715Q76 731 85 740T107 750Q120 750 129 741T138 715V-183Q138 -200 129 -209T107 -219Q94 -219 85 -210T76 -183V715Z" />
<glyph unicode="}" glyph-name="braceright" horiz-adv-x="295" d="M184 239Q148 256 134 281T119 354V514Q119 560 105 581T57 606Q44 607 36 616T27 636Q27 650 38 658T68 667Q133 667 161 634Q174 619 181 589T188 518V358Q188 325 196 306T223 277Q237 269
241 262T245 240Q245 224 242 218T231 205Q217 196 209 188T196 170T190 147T188 116V-44Q188 -79 183 -106T168 -150Q156 -170 130 -181T72 -192Q27 -192 27 -161Q27 -151 31 -145T42 -136T57 -131T75 -127Q87 -125 96 -116T112 -93Q114 -88 115 -82T118 -60Q119
-53 119 -48V121Q119 169 133 194T184 237V239Z" />
<glyph unicode="~" glyph-name="asciitilde" horiz-adv-x="446" d="M130 242Q119 242 117 233T115 215Q115 200 106 190T83 180Q71 180 60 188T49 215Q49 243 57 261T78 288T106 301T133 305Q150 305 172 296T212 278L261 256Q273 250 290 243T315 236Q326 236
328 245T330 263Q330 278 339 288T362 298Q374 298 385 290T396 263Q396 234 388 217T367 190T339 177T312 173Q296 173 273 182T233 199L184 222Q172 228 156 235T130 242Z" />
<glyph unicode="&#xa0;" glyph-name="nbspace" horiz-adv-x="192" />
<glyph unicode="&#xa1;" glyph-name="exclamdown" horiz-adv-x="234" d="M100 395Q83 395 72 407T60 436Q60 453 71 465T100 477Q117 477 129 465T141 436Q141 419 129 407T100 395ZM133 -153Q133 -169 124 -179T99 -190Q83 -190 74 -180T64 -153V250Q64 267 73
277T99 287Q114 287 123 277T133 250V-153Z" />
<glyph unicode="&#xa2;" glyph-name="cent" horiz-adv-x="446" d="M329 503Q321 503 318 503T306 506Q308 498 308 495T309 483V186Q309 178 309 175T306 163Q314 165 317 165T329 166H373Q387 166 395 157T404 133Q404 114 395 105T372 96H328Q320 96 317 96T306
99Q308 91 308 88T309 77V43Q309 26 300 16T274 6Q259 6 250 16T240 43V97H192Q129 97 100 138T71 251V418Q71 489 104 530T193 572H240V617Q240 633 249 643T274 654Q290 654 299 644T309 617V593Q309 585 309 582T306 570Q313 572 316 572H370Q384 572 394 564T404
539Q404 503 371 503H329ZM240 461Q240 476 240 482T243 501H193Q160 501 150 479T140 414V255Q140 212 150 190T194 168H243Q241 181 241 187T240 208V461Z" />
<glyph unicode="&#xa3;" glyph-name="sterling" horiz-adv-x="446" d="M294 302H171Q168 302 160 304Q162 297 162 293T163 281V89Q163 81 163 78T160 66Q168 68 171 68T182 69H390Q407 69 417 59T427 35Q427 19 417 10T390 0H138Q94 0 94 44V281Q94 289 94 293T97
304Q89 302 85 302H54Q37 302 27 311T17 336Q17 352 27 361T54 371H85Q89 371 97 369Q95 376 95 380T94 392V490Q94 557 122 598Q144 631 184 650T270 670Q310 670 339 663T399 638Q419 627 422 617T426 597Q426 585 419 576T395 567Q384 567 376 570T355 580Q343
587 324 595T268 603Q239 603 219 596T187 576T169 548T163 515V392Q163 384 163 380T160 369Q168 371 171 371H294Q311 371 321 362T331 336Q331 321 321 312T294 302Z" />
<glyph unicode="&#xa4;" glyph-name="currency" horiz-adv-x="446" d="M23 171Q34 182 45 193T68 216Q48 239 39 269T29 334Q29 368 38 398T68 452Q60 459 51 468T33 486T18 503T12 518Q12 529 18 538T37 548Q44 548 52 544T65 533L107 489Q130 509 160 519T224
529Q257 529 287 519T340 489L380 530Q386 536 393 540T407 545Q418 545 426 536T434 516Q434 510 431 506T422 495L379 452Q399 429 408 399T418 334Q418 299 409 269T379 216L422 172Q435 159 435 151Q435 138 425 131T404 124Q398 124 393 127T384 134L340 179Q317
159 287 149T224 138Q154 138 107 179L61 133Q56 128 50 124T37 120Q26 120 19 129T11 149Q11 157 23 171ZM101 334Q101 307 110 284T136 244T175 217T224 207Q249 207 271 217T310 244T336 284T346 334Q346 360 337 383T311 423T272 450T224 460Q198 460 176 450T137
423T111 383T101 334Z" />
<glyph unicode="&#xa5;" glyph-name="yen" horiz-adv-x="446" d="M279 410H401Q412 410 422 404T432 380Q432 364 422 357T401 350H276Q269 350 266 350T254 353Q256 348 256 345T257 338V331L256 266Q261 272 266 273T278 274H391Q402 274 412 268T422 244Q422
228 412 221T391 214H276Q269 214 266 214T254 217Q256 209 256 206T257 195V36Q257 20 248 10T223 0Q208 0 198 10T188 36V195Q188 203 188 206T191 217Q183 215 180 215T169 214H53Q42 214 33 221T23 244Q23 259 32 266T53 274H153Q163 274 171 273T188 266V338Q188
342 188 345T191 353Q183 351 180 351T169 350H43Q32 350 23 357T13 380Q13 395 22 402T43 410L161 411L20 612Q13 622 13 632Q13 647 23 657T48 668Q67 668 78 650L189 479Q194 470 200 461T211 443Q216 433 222 425Q227 433 232 443Q237 451 242 460T254 479L366
650Q377 668 396 668Q410 668 420 658T430 633Q430 620 423 612L279 410Z" />
<glyph unicode="&#xa6;" glyph-name="brokenbar" horiz-adv-x="211" d="M76 715Q76 731 85 740T107 750Q120 750 129 741T138 715V428Q138 411 129 402T107 392Q94 392 85 401T76 428V715ZM76 103Q76 120 85 129T107 139Q120 139 129 130T138 103V-183Q138 -200
129 -209T107 -219Q94 -219 85 -210T76 -183V103Z" />
<glyph unicode="&#xa7;" glyph-name="section" horiz-adv-x="446" d="M323 397Q342 383 354 371T373 346T382 322T385 295Q385 261 368 239T321 200Q331 190 341 178Q349 167 356 151T363 115Q363 60 327 30T215 0Q185 0 160 6T115 23T85 47T74 74Q74 87 84 98T110
110Q119 110 126 106T139 97L152 85Q162 75 178 70T214 63Q252 61 273 73T294 114Q294 129 282 150T237 195L121 283Q89 308 76 328T62 380Q62 412 80 435T127 471Q109 488 96 510T82 556Q82 609 119 638T216 667Q285 667 321 643T358 591Q358 580 350 571T326
561Q309 561 297 571L291 576Q276 590 260 598T213 607Q191 607 172 597T153 559Q153 543 162 527T194 493L323 397ZM163 440Q152 437 144 430Q136 424 131 413T125 384Q125 367 135 357T160 335L289 236Q308 244 316 257T325 285Q325 300 318 314T296 339L163
440Z" />
<glyph unicode="&#xa8;" glyph-name="dieresis" horiz-adv-x="500" d="M128 625Q128 645 141 658T175 672Q195 672 208 658T222 624Q222 605 209 592T175 578Q155 578 142 591T128 625ZM278 625Q278 645 291 658T325 672Q345 672 358 658T372 624Q372 605 359
592T325 578Q305 578 292 591T278 625Z" />
<glyph unicode="&#xa9;" glyph-name="copyright" horiz-adv-x="651" d="M405 524Q416 524 423 518T430 501Q430 491 423 485T405 478H300Q267 478 255 464T242 415V252Q242 217 254 203T300 189H405Q416 189 423 183T430 165Q430 156 423 150T405 143H302Q190
143 190 245V422Q190 524 302 524H405ZM325 666Q397 666 457 640T560 569T626 463T650 333Q650 264 627 204T560 98T457 27T325 0Q252 0 192 26T90 98T24 203T0 333Q0 402 23 462T89 568T192 639T325 666ZM325 622Q260 622 209 600T123 538T69 446T50 333Q50 273
69 221T123 129T209 67T325 44Q389 44 440 67T526 129T581 220T600 333Q600 393 581 445T527 537T440 599T325 622Z" />
<glyph unicode="&#xaa;" glyph-name="ordfeminine" horiz-adv-x="317" d="M188 550Q195 550 198 550T210 547Q207 550 207 556V562Q207 594 198 606T166 619H73Q61 619 54 625T46 643Q46 654 54 660T73 667H158Q257 667 257 573V421Q257 398 250 390T226 381H150Q126
381 112 383T84 393Q65 404 53 424T41 466Q41 504 67 527T138 550H188ZM236 308Q251 308 260 300T269 277Q269 264 260 256T236 248H70Q56 248 47 256T38 277Q38 292 47 300T70 308H236ZM188 429Q195 429 198 429T210 426Q208 434 208 437T207 448V482Q207 490
207 493T210 504Q202 502 198 502H152Q93 502 93 464Q93 448 106 439T143 429H188Z" />
<glyph unicode="&#xab;" glyph-name="guillemotleft" horiz-adv-x="495" d="M345 261Q340 255 337 253T328 246Q334 242 337 240T345 232L438 140Q450 128 450 113Q450 97 441 88T416 78Q405 78 398 82T375 102L283 195L262 215Q255 223 252 228T247 237T246 246Q246
251 247 255T251 264T262 277L375 390Q391 406 398 410T416 414Q431 414 440 405T450 380Q450 365 438 353L345 261ZM144 261Q138 255 135 253T126 246Q132 242 135 240T144 232L237 140Q248 129 248 113Q248 97 239 88T215 78Q204 78 197 82T174 102L82 195Q58
219 52 227T45 246Q45 256 51 265T82 298L174 390Q190 406 197 410T214 414Q229 414 238 405T248 380Q248 364 237 353L144 261Z" />
<glyph unicode="&#xac;" glyph-name="logicalnot" horiz-adv-x="446" d="M352 273Q377 273 384 272T397 266Q410 256 410 239L411 110Q411 85 410 79T403 65Q393 52 373 52Q352 52 341 69Q338 74 338 80T337 110V195Q337 199 339 206Q332 204 328 204H95Q70 204
64 205T51 211Q37 222 37 239Q37 259 54 269Q59 272 65 272T95 273H352Z" />
<glyph unicode="&#xad;" glyph-name="sfthyphen" horiz-adv-x="364" d="M278 282Q295 282 305 273T316 247Q316 232 306 223T278 213H84Q67 213 57 222T47 247Q47 263 57 272T84 282H278Z" />
<glyph unicode="&#xae;" glyph-name="registered" horiz-adv-x="492" d="M246 781Q297 781 342 762T420 710T473 631T492 535Q492 484 473 439T421 361T342 309T246 289Q195 289 150 308T72 361T20 439T0 535Q0 586 19 631T72 709T150 761T246 781ZM246 737Q204
737 168 721T104 678T60 614T44 535Q44 493 60 457T103 393T167 349T246 333Q288 333 325 349T389 392T432 456T448 535Q448 577 432 614T389 678T325 721T246 737ZM245 669Q262 669 272 667T294 658Q314 647 326 628T338 587Q338 563 324 544T286 513Q288 511
289 509T292 505L330 431Q335 422 335 416Q335 410 330 406T318 402Q310 402 306 405T294 424L252 505H203Q201 505 196 506Q198 501 198 499V419Q198 402 179 402Q161 402 161 419V650Q161 669 182 669H245ZM198 631V542Q198 539 196 534Q201 536 203 536H242Q270
536 285 550T301 587Q301 610 285 623T240 637H203Q201 637 196 639Q198 634 198 631Z" />
<glyph unicode="&#xaf;" glyph-name="macron" horiz-adv-x="500" d="M157 581Q111 581 111 618Q111 635 122 645T157 656H341Q364 656 376 646T388 618Q388 581 341 581H157Z" />
<glyph unicode="&#xb0;" glyph-name="degree" horiz-adv-x="389" d="M196 666Q259 666 299 629T339 524Q339 463 304 423T196 383Q158 383 131 394T86 424T60 469T51 524Q51 553 61 579T90 624T136 655T196 666ZM196 606Q158 606 138 581T117 524Q117 492 137
468T196 443Q235 443 254 468T273 524Q273 560 251 583T196 606Z" />
<glyph unicode="&#xb1;" glyph-name="plusminus" horiz-adv-x="446" d="M260 317Q260 309 260 306T257 294Q265 296 268 296T280 297H356Q373 297 389 292T405 262Q405 244 395 236T356 228H280Q272 228 269 228T257 231Q259 223 259 220T260 208V160Q260 135
259 129T253 115Q241 102 223 102Q201 102 192 120Q189 125 189 131T188 160V219Q188 223 190 231Q183 229 179 229T167 228H94Q85 228 76 228T60 232T47 242T42 262Q42 281 54 289T94 297H167Q175 297 179 297T190 294Q188 302 188 305V373Q188 382 188 391T192
407T203 419T223 424Q243 424 251 413T260 373V317ZM352 69Q361 69 370 69T387 65T400 54T405 33Q405 14 393 7T352 0H95Q87 0 78 0T60 4T47 13T42 33Q42 53 54 61T95 69H352Z" />
<glyph unicode="&#xb2;" glyph-name="twosuperior" horiz-adv-x="313" d="M116 312Q126 313 133 313T146 314T160 315H238Q249 315 256 309T264 291Q264 280 257 274T239 267H85Q51 267 51 286Q51 291 53 297T63 314L178 484L195 510Q209 529 213 541T218 566Q218
590 202 604T159 619Q139 619 127 611T103 582Q95 569 90 564T76 559Q65 559 58 566T51 585Q51 600 60 614T86 641T122 660T162 667Q209 667 238 640T268 570Q268 547 262 530T236 486L168 386Q159 372 153 363T141 347T130 333T115 314L116 312Z" />
<glyph unicode="&#xb3;" glyph-name="threesuperior" horiz-adv-x="313" d="M129 667Q156 667 174 664T207 651Q230 637 243 614T256 565Q256 517 215 487Q235 475 246 451T258 394Q258 332 228 300T141 267H66Q55 267 48 273T40 291Q40 302 47 308T66 315H131Q171
315 187 328Q196 337 202 353T208 388Q208 461 137 461H110Q84 461 84 485Q84 496 91 502T110 509H137Q169 509 187 524T206 566Q206 619 132 619H66Q55 619 48 625T40 643Q40 654 47 660T66 667H129Z" />
<glyph unicode="&#xb4;" glyph-name="acute" horiz-adv-x="500" d="M338 692Q338 675 322 659L227 563Q218 552 210 550T194 547Q182 547 173 555T163 580Q163 594 176 605L268 701Q278 709 285 715T306 721Q321 721 328 712T338 692Z" />
<glyph unicode="&#xb5;" glyph-name="mu" horiz-adv-x="446" d="M71 439Q71 455 81 465T108 475Q124 475 133 465T143 439V125Q143 103 147 91T160 72T179 65T202 63H304V439Q304 454 313 464T339 475Q356 475 365 465T375 439V32Q375 0 340 0H212Q186 0 170 3T143
14V-166Q143 -181 133 -191T107 -202Q90 -202 81 -192T71 -166V439Z" />
<glyph unicode="&#xb6;" glyph-name="paragraph" horiz-adv-x="553" d="M241 313Q241 321 241 324T244 336Q232 333 227 333Q215 333 200 334T170 339T141 346T117 357Q78 380 57 416T36 498Q36 548 59 586T126 645Q151 656 182 661T259 667H483Q489 667 497 667T511
664T522 656T527 639Q527 622 520 616T488 610H460Q452 610 449 610T438 613Q440 605 440 601V39Q440 34 440 27T437 14T430 4T414 0Q400 0 391 8T382 39V601Q382 605 384 613Q376 611 373 611T362 610H320Q312 610 309 610T298 613Q300 605 300 602T301 590V39Q301
33 300 27T296 14T287 4T270 0Q256 0 249 8T241 39V313Z" />
<glyph unicode="&#xb7;" glyph-name="periodcentered" horiz-adv-x="181" d="M91 288Q108 288 120 276T132 247Q132 230 120 218T91 206Q73 206 61 218T49 247Q49 264 61 276T91 288Z" />
<glyph unicode="&#xb8;" glyph-name="cedilla" horiz-adv-x="500" d="M258 -51Q307 -53 325 -77T343 -136Q343 -171 318 -198T239 -225Q206 -225 186 -213T159 -187Q156 -180 157 -172T165 -158Q172 -151 183 -151T201 -157L206 -162Q221 -175 237 -175Q256 -175
266 -164T276 -136Q276 -120 266 -108T232 -95H221Q197 -95 197 -74Q197 -72 198 -65T201 -56L216 2H271L258 -51Z" />
<glyph unicode="&#xb9;" glyph-name="onesuperior" horiz-adv-x="313" d="M155 591Q152 588 151 587T135 570Q116 550 109 545T94 540Q85 540 78 547T70 563Q70 575 91 593L125 627Q152 653 162 660T182 667Q194 667 198 659T203 629V292Q203 281 196 274T177
267Q167 267 160 274T153 292V509Q153 523 154 535T155 559T158 590L155 591Z" />
<glyph unicode="&#xba;" glyph-name="ordmasculine" horiz-adv-x="317" d="M50 556Q50 606 80 636T158 667Q206 667 236 637T267 556V492Q267 442 237 412T158 381Q110 381 80 411T50 492V556ZM100 503Q100 429 158 429Q217 429 217 503V542Q217 619 158 619Q100
619 100 542V503ZM241 308Q256 308 265 300T274 277Q274 264 265 256T241 248H75Q61 248 52 256T43 277Q43 292 52 300T75 308H241Z" />
<glyph unicode="&#xbb;" glyph-name="guillemotright" horiz-adv-x="495" d="M351 232Q356 238 359 240L368 246Q362 251 359 253T351 261L258 353Q246 365 246 380Q246 395 256 404T280 414Q291 414 298 410T321 390L414 298Q426 285 433 278T444 265T449 255T450
246Q450 241 449 238T445 229T434 216T414 195L321 102Q306 87 299 83T280 78Q266 78 256 87T246 113Q246 128 258 140L351 232ZM149 232Q155 238 158 240L167 246Q161 251 158 253T149 261L57 353Q45 365 45 380Q45 395 54 404T78 414Q89 414 96 410T120 390L212
298Q236 274 242 265T248 246Q248 241 247 237T242 228T231 215T212 195L120 102Q104 87 97 83T79 78Q65 78 55 87T45 113Q45 128 57 140L149 232Z" />
<glyph unicode="&#xbc;" glyph-name="onequarter" horiz-adv-x="774" d="M538 654Q547 669 562 669Q573 669 581 661T590 640Q590 630 584 624L181 16Q172 1 156 1Q145 1 137 9T129 30Q129 40 135 46L538 654ZM588 123Q596 123 599 123T611 120Q609 128 609 131V193Q609
204 615 211T633 219Q645 219 652 212T659 193V131Q659 128 657 120Q664 122 667 122T677 123H694Q705 123 713 117T721 99Q721 88 713 82T694 75H666Q664 75 657 77Q659 70 659 66V25Q659 14 652 7T633 0Q622 0 616 7T609 25V66Q609 70 611 77Q603 75 600 75H501Q465
75 465 97Q465 106 470 117L539 351Q543 367 546 376T552 391T560 398T572 400Q594 400 594 378Q594 374 593 368T588 350L536 167Q531 151 529 144T520 121Q534 123 542 123H588ZM155 591L149 584Q140 576 135 571T128 563Q117 550 109 545T94 540Q85 540 78 547T70
563Q70 575 90 593L125 627Q138 640 147 648T162 660T172 665T182 667Q194 667 198 659T203 629V292Q203 281 196 274T178 267Q166 267 159 274T152 292L153 476V509Q153 523 153 535T154 559T157 590L155 591Z" />
<glyph unicode="&#xbd;" glyph-name="onehalf" horiz-adv-x="774" d="M539 654Q548 669 563 669Q574 669 582 661T591 640Q591 630 585 624L182 16Q173 1 156 1Q145 1 137 9T129 30Q129 40 135 46L539 654ZM564 45Q574 46 581 46T594 47T608 48H686Q697 48 704
42T712 24Q712 13 705 7T686 0H532Q516 0 507 5T497 20Q497 25 499 30T510 47L625 218Q638 239 646 251T658 272T663 286T664 300Q664 324 648 338T605 353Q585 353 573 345T550 316Q542 302 537 298T522 293Q512 293 505 300T497 318Q497 333 506 348T532 375T567
394T608 401Q655 401 684 374T714 303Q714 280 708 263T684 220L616 119Q607 105 601 96T589 80T578 66T563 47L564 45ZM141 591L135 584Q126 576 121 571T114 563Q103 550 95 545T80 540Q71 540 64 547T56 563Q56 575 76 593L111 627Q124 640 133 648T148 660T158
665T168 667Q180 667 184 659T189 629V292Q189 281 182 274T164 267Q152 267 145 274T138 292L139 476V509Q139 523 139 535T140 559T143 590L141 591Z" />
<glyph unicode="&#xbe;" glyph-name="threequarters" horiz-adv-x="774" d="M568 654Q577 669 592 669Q603 669 611 661T620 640Q620 630 614 624L211 16Q202 1 186 1Q175 1 167 9T159 30Q159 40 165 46L568 654ZM149 667Q176 667 194 664T227 651Q250 637 263
614T276 565Q276 517 235 487Q255 475 266 451T278 394Q278 332 248 300T161 267H86Q75 267 68 273T60 291Q60 302 67 308T86 315H151Q191 315 207 328Q216 337 222 353T228 388Q228 461 157 461H130Q104 461 104 485Q104 496 111 502T130 509H157Q189 509 207
524T226 566Q226 619 152 619H86Q75 619 68 625T60 643Q60 654 67 660T86 667H149ZM599 123Q607 123 610 123T621 120Q619 128 619 131V193Q619 204 625 211T643 219Q655 219 662 212T669 193V131Q669 128 667 120Q674 122 677 122T687 123H704Q715 123 723 117T731
99Q731 88 723 82T704 75H676Q674 75 667 77Q669 70 669 66V25Q669 14 662 7T643 0Q632 0 626 7T619 25V66Q619 70 621 77Q613 75 610 75H511Q475 75 475 97Q475 104 480 117L549 351Q553 367 556 376T562 391T570 398T582 400Q604 400 604 378Q604 374 603 368T598
350L546 167Q541 151 539 144T530 121Q544 123 552 123H599Z" />
<glyph unicode="&#xbf;" glyph-name="questiondown" horiz-adv-x="419" d="M177 246Q177 262 186 272T212 282Q227 282 236 272T246 246V158Q246 111 234 89Q231 82 227 77T215 65T195 49T160 25Q134 7 124 -9T113 -51Q113 -80 132 -101T196 -123Q229 -123 246
-116T275 -99T298 -83T330 -75Q342 -75 351 -84T360 -108Q360 -124 345 -139T306 -166T254 -185T200 -192Q159 -192 130 -181T81 -152T53 -107T44 -50Q44 -17 53 6T80 48Q84 52 84 53T87 55T95 61T115 76L153 103Q177 120 177 160V246ZM212 393Q195 393 183 405T171
434Q171 451 183 463T212 475Q229 475 240 463T252 434Q252 417 241 405T212 393Z" />
<glyph unicode="&#xc0;" glyph-name="Agrave" horiz-adv-x="510" d="M132 160L87 25Q79 -1 53 -1Q39 -1 29 9T19 34Q19 37 21 47L215 624Q223 647 232 657T255 667Q272 667 279 659T295 623L483 46Q486 40 486 34Q486 20 476 10T451 -1Q425 -1 417 25L372 160H132ZM171
278Q168 269 166 263T161 252T157 241T151 228Q168 229 177 229H327Q333 229 339 229T353 228Q347 243 344 251T335 277L294 403Q287 426 282 441T273 470T266 499T257 535H253Q247 514 243 499T235 471T226 442T213 404L171 278ZM125 867Q127 878 134 887T157
896Q170 896 177 890L195 876L287 780Q299 769 299 755Q299 738 290 730T268 722Q260 722 252 724T236 738L141 834Q125 850 125 867Z" />
<glyph unicode="&#xc1;" glyph-name="Aacute" horiz-adv-x="510" d="M132 160L87 25Q79 -1 53 -1Q39 -1 29 9T19 34Q19 37 21 47L215 624Q223 647 232 657T255 667Q272 667 279 659T295 623L483 46Q486 40 486 34Q486 20 476 10T451 -1Q425 -1 417 25L372 160H132ZM171
278Q168 269 166 263T161 252T157 241T151 228Q168 229 177 229H327Q333 229 339 229T353 228Q347 243 344 251T335 277L294 403Q287 426 282 441T273 470T266 499T257 535H253Q247 514 243 499T235 471T226 442T213 404L171 278ZM385 867Q385 850 369 834L274
738Q265 727 257 725T241 722Q229 722 220 730T210 755Q210 769 223 780L315 876Q325 884 332 890T353 896Q368 896 375 887T385 867Z" />
<glyph unicode="&#xc2;" glyph-name="Acircumflex" horiz-adv-x="510" d="M132 160L87 25Q79 -1 53 -1Q39 -1 29 9T19 34Q19 37 21 47L215 624Q223 647 232 657T255 667Q272 667 279 659T295 623L483 46Q486 40 486 34Q486 20 476 10T451 -1Q425 -1 417 25L372
160H132ZM171 278Q168 269 166 263T161 252T157 241T151 228Q168 229 177 229H327Q333 229 339 229T353 228Q347 243 344 251T335 277L294 403Q287 426 282 441T273 470T266 499T257 535H253Q247 514 243 499T235 471T226 442T213 404L171 278ZM179 738Q173 733
166 730T151 727Q137 727 129 735T120 759Q120 768 124 775T144 797L219 865Q227 871 235 876T255 882Q268 882 277 876T293 864L368 796Q384 782 387 775T390 759Q390 744 381 736T359 727Q345 727 325 742L255 809L179 738Z" />
<glyph unicode="&#xc3;" glyph-name="Atilde" horiz-adv-x="510" d="M132 160L87 25Q79 -1 53 -1Q39 -1 29 9T19 34Q19 37 21 47L215 624Q223 647 232 657T255 667Q272 667 279 659T295 623L483 46Q486 40 486 34Q486 20 476 10T451 -1Q425 -1 417 25L372 160H132ZM171
278Q168 269 166 263T161 252T157 241T151 228Q168 229 177 229H327Q333 229 339 229T353 228Q347 243 344 251T335 277L294 403Q287 426 282 441T273 470T266 499T257 535H253Q247 514 243 499T235 471T226 442T213 404L171 278ZM199 760Q189 760 183 756T171
748T160 740T143 736Q127 736 120 745T112 766Q112 778 118 790T134 811T159 825T189 831Q205 831 223 827T260 818T295 808T326 804Q337 804 343 808T355 817T366 826T382 830Q398 830 406 821T415 795Q415 784 409 774T393 755T368 741T337 735Q321 735 303 739T266
747T231 756T199 760Z" />
<glyph unicode="&#xc4;" glyph-name="Adieresis" horiz-adv-x="510" d="M132 160L87 25Q79 -1 53 -1Q39 -1 29 9T19 34Q19 37 21 47L215 624Q223 647 232 657T255 667Q272 667 279 659T295 623L483 46Q486 40 486 34Q486 20 476 10T451 -1Q425 -1 417 25L372 160H132ZM171
278Q168 269 166 263T161 252T157 241T151 228Q168 229 177 229H327Q333 229 339 229T353 228Q347 243 344 251T335 277L294 403Q287 426 282 441T273 470T266 499T257 535H253Q247 514 243 499T235 471T226 442T213 404L171 278ZM115 785Q115 808 130 823T168
838Q189 838 204 823T220 785Q220 763 205 749T168 734Q146 734 131 748T115 785ZM290 785Q290 808 305 823T342 838Q364 838 379 823T395 785Q395 763 380 749T342 734Q321 734 306 748T290 785Z" />
<glyph unicode="&#xc5;" glyph-name="Aring" horiz-adv-x="510" d="M132 160L87 25Q79 -1 53 -1Q39 -1 29 9T19 34Q19 37 21 47L215 624Q223 647 232 657T255 667Q272 667 279 659T295 623L483 46Q486 40 486 34Q486 20 476 10T451 -1Q425 -1 417 25L372 160H132ZM171
278Q168 269 166 263T161 252T157 241T151 228Q168 229 177 229H327Q333 229 339 229T353 228Q347 243 344 251T335 277L294 403Q287 426 282 441T273 470T266 499T257 535H253Q247 514 243 499T235 471T226 442T213 404L171 278ZM158 770Q158 810 186 836T256
863Q296 863 324 837T352 770Q352 729 324 703T256 677Q214 677 186 703T158 770ZM208 770Q208 750 221 737T256 723Q275 723 288 736T302 770Q302 789 289 803T256 817Q235 817 222 803T208 770Z" />
<glyph unicode="&#xc6;" glyph-name="AE" horiz-adv-x="713" d="M426 418Q426 410 426 407T423 396Q431 398 434 398H585Q602 398 612 389T622 364Q622 348 612 339T585 329H434Q431 329 423 331Q425 324 425 321T426 309V89Q426 81 426 78T423 67Q431 69 434
69H653Q669 69 679 60T690 35Q690 19 680 10T653 0H399Q376 0 367 9T357 43V184Q357 192 357 195T360 206Q352 205 349 205T337 204H188L85 26Q78 12 68 6T44 0Q32 0 24 8T15 28Q15 36 20 46L307 545Q324 574 342 603T373 647Q381 658 390 662T413 667H653Q669
667 679 658T690 632Q690 617 680 608T653 598H434Q431 598 423 600Q425 592 425 589T426 577V418ZM261 334L221 267Q245 269 258 269H357V424Q357 440 358 453T360 482T363 518H359Q349 497 342 483T328 455T313 426T291 387L261 334Z" />
<glyph unicode="&#xc7;" glyph-name="Ccedilla" horiz-adv-x="417" d="M366 667Q383 667 393 658T404 632Q404 617 394 608T366 598H237Q178 598 155 571T132 479V188Q132 122 155 96T237 69H366Q383 69 393 60T404 35Q404 19 394 10T366 0H247H242L232 -41Q281
-43 299 -67T317 -126Q317 -161 292 -188T212 -215Q179 -215 159 -203T132 -177Q129 -170 130 -162T138 -148Q145 -141 156 -141T174 -147L179 -152Q195 -165 211 -165Q230 -165 240 -154T250 -126Q250 -110 240 -98T206 -85H195Q171 -85 171 -64Q171 -62 172 -55T175
-46L188 5Q63 30 63 176V491Q63 585 119 631Q162 667 247 667H366Z" />
<glyph unicode="&#xc8;" glyph-name="Egrave" horiz-adv-x="446" d="M160 418Q160 410 160 407T157 396Q165 398 168 398H319Q336 398 346 389T357 364Q357 348 347 339T319 329H169Q165 329 157 331Q159 324 159 321T160 309V90Q160 82 160 78T157 67Q165 69
168 69H387Q403 69 413 60T424 35Q424 19 414 10T387 0H133Q109 0 100 9T91 43V624Q91 648 100 657T133 667H387Q403 667 413 658T424 632Q424 617 414 608T387 598H168Q165 598 157 600Q159 592 159 589T160 577V418ZM135 867Q137 878 144 887T167 896Q180 896
187 890L205 876L297 780Q309 769 309 755Q309 738 300 730T278 722Q270 722 262 724T246 738L151 834Q135 850 135 867Z" />
<glyph unicode="&#xc9;" glyph-name="Eacute" horiz-adv-x="446" d="M160 418Q160 410 160 407T157 396Q165 398 168 398H319Q336 398 346 389T357 364Q357 348 347 339T319 329H169Q165 329 157 331Q159 324 159 321T160 309V90Q160 82 160 78T157 67Q165 69
168 69H387Q403 69 413 60T424 35Q424 19 414 10T387 0H133Q109 0 100 9T91 43V624Q91 648 100 657T133 667H387Q403 667 413 658T424 632Q424 617 414 608T387 598H168Q165 598 157 600Q159 592 159 589T160 577V418ZM371 867Q371 850 355 834L260 738Q251 727
243 725T227 722Q215 722 206 730T196 755Q196 769 209 780L301 876Q311 884 318 890T339 896Q354 896 361 887T371 867Z" />
<glyph unicode="&#xca;" glyph-name="Ecircumflex" horiz-adv-x="446" d="M160 418Q160 410 160 407T157 396Q165 398 168 398H319Q336 398 346 389T357 364Q357 348 347 339T319 329H169Q165 329 157 331Q159 324 159 321T160 309V90Q160 82 160 78T157 67Q165
69 168 69H387Q403 69 413 60T424 35Q424 19 414 10T387 0H133Q109 0 100 9T91 43V624Q91 648 100 657T133 667H387Q403 667 413 658T424 632Q424 617 414 608T387 598H168Q165 598 157 600Q159 592 159 589T160 577V418ZM177 738Q171 733 164 730T149 727Q135
727 127 735T118 759Q118 768 122 775T142 797L217 865Q225 871 233 876T253 882Q266 882 275 876T291 864L366 796Q382 782 385 775T388 759Q388 744 379 736T357 727Q343 727 323 742L253 809L177 738Z" />
<glyph unicode="&#xcb;" glyph-name="Edieresis" horiz-adv-x="446" d="M160 418Q160 410 160 407T157 396Q165 398 168 398H319Q336 398 346 389T357 364Q357 348 347 339T319 329H169Q165 329 157 331Q159 324 159 321T160 309V90Q160 82 160 78T157 67Q165
69 168 69H387Q403 69 413 60T424 35Q424 19 414 10T387 0H133Q109 0 100 9T91 43V624Q91 648 100 657T133 667H387Q403 667 413 658T424 632Q424 617 414 608T387 598H168Q165 598 157 600Q159 592 159 589T160 577V418ZM113 795Q113 818 128 833T166 848Q187
848 202 833T218 795Q218 773 203 759T166 744Q144 744 129 758T113 795ZM288 795Q288 818 303 833T340 848Q362 848 377 833T393 795Q393 773 378 759T340 744Q319 744 304 758T288 795Z" />
<glyph unicode="&#xcc;" glyph-name="Igrave" horiz-adv-x="253" d="M91 631Q91 647 100 657T125 667Q141 667 150 657T160 631V36Q160 20 151 10T125 0Q110 0 101 10T91 36V631ZM5 867Q7 878 14 887T37 896Q50 896 57 890L75 876L167 780Q179 769 179 755Q179
738 170 730T148 722Q140 722 132 724T116 738L21 834Q5 850 5 867Z" />
<glyph unicode="&#xcd;" glyph-name="Iacute" horiz-adv-x="253" d="M245 867Q245 850 229 834L134 738Q125 727 117 725T101 722Q89 722 80 730T70 755Q70 769 83 780L175 876Q185 884 192 890T213 896Q228 896 235 887T245 867ZM91 631Q91 647 100 657T125 667Q141
667 150 657T160 631V36Q160 20 151 10T125 0Q110 0 101 10T91 36V631Z" />
<glyph unicode="&#xce;" glyph-name="Icircumflex" horiz-adv-x="253" d="M51 738Q45 733 38 730T23 727Q9 727 1 735T-8 759Q-8 768 -4 775T16 797L91 865Q99 871 107 876T127 882Q140 882 149 876T165 864L240 796Q256 782 259 775T262 759Q262 744 253 736T231
727Q217 727 197 742L127 809L51 738ZM91 631Q91 647 100 657T125 667Q141 667 150 657T160 631V36Q160 20 151 10T125 0Q110 0 101 10T91 36V631Z" />
<glyph unicode="&#xcf;" glyph-name="Idieresis" horiz-adv-x="253" d="M-13 795Q-13 818 2 833T40 848Q61 848 76 833T92 795Q92 773 77 759T40 744Q18 744 3 758T-13 795ZM162 795Q162 818 177 833T214 848Q236 848 251 833T267 795Q267 773 252 759T214 744Q193
744 178 758T162 795ZM91 631Q91 647 100 657T125 667Q141 667 150 657T160 631V36Q160 20 151 10T125 0Q110 0 101 10T91 36V631Z" />
<glyph unicode="&#xd0;" glyph-name="Eth" horiz-adv-x="558" d="M88 298Q88 306 88 309T91 321Q83 319 80 319T68 318H44Q25 318 16 329T7 353Q7 365 16 376T44 387H68Q76 387 79 387T91 384Q89 392 89 395T88 407V624Q88 648 97 657T131 667H305Q362 667 395
657T453 620Q474 597 483 568T493 491V176Q493 129 484 99T453 47Q429 21 396 11T305 0H131Q107 0 98 9T88 43V298ZM157 588V395Q157 392 155 384Q163 386 166 386T178 387H268Q287 387 295 376T304 353Q304 340 296 329T268 318H178Q170 318 167 318T155 321Q157
313 157 309V78Q157 74 155 67Q163 69 166 69H319Q376 69 400 96T424 188V479Q424 544 400 571T319 598H166Q163 598 155 600Q157 592 157 588Z" />
<glyph unicode="&#xd1;" glyph-name="Ntilde" horiz-adv-x="588" d="M155 519Q156 494 157 477T159 443T160 407V36Q160 20 151 10T125 0Q110 0 101 10T91 36V604Q91 667 124 667Q146 667 162 641L356 296Q369 272 378 256T394 226T409 196T428 157H432Q430 182
430 200T428 234T427 269V631Q427 647 436 657T462 667Q477 667 486 657T496 631V64Q496 0 462 0Q450 0 442 8T420 39L231 380Q218 404 209 420T192 451L177 482Q169 498 158 521L155 519ZM229 780Q219 780 213 776T201 768T190 760T173 756Q157 756 150 765T142
786Q142 798 148 810T164 831T189 845T219 851Q235 851 253 847T290 838T325 828T356 824Q367 824 373 828T385 837T396 846T412 850Q428 850 436 841T445 815Q445 804 439 794T423 775T398 761T367 755Q351 755 333 759T296 767T261 776T229 780Z" />
<glyph unicode="&#xd2;" glyph-name="Ograve" horiz-adv-x="518" d="M461 207Q461 163 446 125T403 60T339 16T261 0Q204 0 157 27T83 102Q69 128 63 156T56 223V447Q56 484 62 512T83 565Q109 612 157 639T261 667Q303 667 339 651T403 608T445 542T461 460V207ZM125
223Q125 178 137 148T172 99Q211 69 259 69Q296 69 326 86T374 133Q384 150 388 170T392 217V450Q392 504 374 534Q357 564 326 581T258 598Q222 598 192 582T145 536Q125 501 125 446V223ZM140 867Q142 878 149 887T172 896Q185 896 192 890L210 876L302 780Q314
769 314 755Q314 738 305 730T283 722Q275 722 267 724T251 738L156 834Q140 850 140 867Z" />
<glyph unicode="&#xd3;" glyph-name="Oacute" horiz-adv-x="518" d="M369 867Q369 850 353 834L258 738Q249 727 241 725T225 722Q213 722 204 730T194 755Q194 769 207 780L299 876Q309 884 316 890T337 896Q352 896 359 887T369 867ZM461 207Q461 163 446 125T403
60T339 16T261 0Q204 0 157 27T83 102Q69 128 63 156T56 223V447Q56 484 62 512T83 565Q109 612 157 639T261 667Q303 667 339 651T403 608T445 542T461 460V207ZM125 223Q125 178 137 148T172 99Q211 69 259 69Q296 69 326 86T374 133Q384 150 388 170T392 217V450Q392
504 374 534Q357 564 326 581T258 598Q222 598 192 582T145 536Q125 501 125 446V223Z" />
<glyph unicode="&#xd4;" glyph-name="Ocircumflex" horiz-adv-x="518" d="M183 728Q177 723 170 720T155 717Q141 717 133 725T124 749Q124 758 128 765T148 787L223 855Q231 861 239 866T259 872Q272 872 281 866T297 854L372 786Q388 772 391 765T394 749Q394
734 385 726T363 717Q349 717 329 732L259 799L183 728ZM463 207Q463 163 448 125T405 60T341 16T261 0Q204 0 156 27T82 102Q68 128 62 156T55 223V447Q55 484 61 512T82 565Q108 612 156 639T261 667Q304 667 341 651T405 608T447 542T463 460V207ZM125 223Q125
178 137 148T172 99Q211 69 259 69Q296 69 326 86T374 133Q384 150 388 170T392 217V450Q392 504 374 534Q357 564 326 581T258 598Q222 598 192 582T145 536Q125 501 125 446V223Z" />
<glyph unicode="&#xd5;" glyph-name="Otilde" horiz-adv-x="518" d="M194 770Q184 770 178 766T166 758T155 750T138 746Q122 746 115 755T107 776Q107 788 113 800T129 821T154 835T184 841Q200 841 218 837T255 828T290 818T321 814Q332 814 338 818T350 827T361
836T377 840Q393 840 401 831T410 805Q410 794 404 784T388 765T363 751T332 745Q316 745 298 749T261 757T226 766T194 770ZM461 207Q461 163 446 125T403 60T339 16T261 0Q204 0 157 27T83 102Q69 128 63 156T56 223V447Q56 484 62 512T83 565Q109 612 157 639T261
667Q303 667 339 651T403 608T445 542T461 460V207ZM125 223Q125 178 137 148T172 99Q211 69 259 69Q296 69 326 86T374 133Q384 150 388 170T392 217V450Q392 504 374 534Q357 564 326 581T258 598Q222 598 192 582T145 536Q125 501 125 446V223Z" />
<glyph unicode="&#xd6;" glyph-name="Odieresis" horiz-adv-x="518" d="M123 795Q123 818 138 833T176 848Q197 848 212 833T228 795Q228 773 213 759T176 744Q154 744 139 758T123 795ZM298 795Q298 818 313 833T350 848Q372 848 387 833T403 795Q403 773 388
759T350 744Q329 744 314 758T298 795ZM461 207Q461 163 446 125T403 60T339 16T261 0Q204 0 157 27T83 102Q69 128 63 156T56 223V447Q56 484 62 512T83 565Q109 612 157 639T261 667Q303 667 339 651T403 608T445 542T461 460V207ZM125 223Q125 178 137 148T172
99Q211 69 259 69Q296 69 326 86T374 133Q384 150 388 170T392 217V450Q392 504 374 534Q357 564 326 581T258 598Q222 598 192 582T145 536Q125 501 125 446V223Z" />
<glyph unicode="&#xd7;" glyph-name="multiply" horiz-adv-x="446" d="M306 371Q315 380 321 385T331 394T338 397T347 398Q361 398 371 387T382 361Q382 352 378 345T357 321L288 253Q282 247 279 245T270 238Q276 234 279 231L288 224L357 156Q374 139 378 132T382
115Q382 101 372 90T347 79Q342 79 338 80T330 83T321 91T306 105L223 188L141 106Q123 88 117 84T100 79Q86 79 75 90T64 115Q64 125 68 131T91 156L159 224Q164 229 167 231T176 238Q170 243 167 245T159 253L76 335Q71 341 68 345T65 353T64 362Q64 376 75 387T100
398Q110 398 116 394T141 371L223 289L306 371Z" />
<glyph unicode="&#xd8;" glyph-name="Oslash" horiz-adv-x="518" d="M461 207Q461 163 446 125T403 60T339 16T260 0Q204 0 156 27Q145 33 134 41L106 -14Q95 -36 76 -36Q60 -36 51 -28T42 -8Q42 2 52 19L89 90Q86 96 83 102Q69 128 63 156T56 223V447Q56 484
62 512T83 565Q109 612 157 639T261 667Q304 667 340 651Q358 643 373 633L398 681Q403 691 410 697T429 703Q444 703 452 695T461 675Q461 670 458 663T450 648L419 589Q435 568 445 542Q461 504 461 460V207ZM171 99Q210 69 258 69Q295 69 325 86T373 133Q383
150 387 170T392 217V450Q392 489 381 516L166 103Q168 101 171 99ZM125 223Q125 192 130 169L341 571Q334 576 326 581Q295 598 258 598Q222 598 192 582T145 536Q125 501 125 446V223Z" />
<glyph unicode="&#xd9;" glyph-name="Ugrave" horiz-adv-x="560" d="M77 631Q77 647 87 657T112 667Q128 667 137 657T147 631V221Q147 182 154 159T180 114Q217 69 280 69Q342 69 381 114Q400 135 407 158T414 221V631Q414 647 423 657T448 667Q464 667 473 657T483
631V223Q483 173 474 140T444 78Q417 41 374 21T280 0Q230 0 187 20T116 78Q95 107 86 140T77 223V631ZM154 857Q156 868 163 877T186 886Q199 886 206 880L224 866L316 770Q328 759 328 745Q328 728 319 720T297 712Q289 712 281 714T265 728L170 824Q154 840
154 857Z" />
<glyph unicode="&#xda;" glyph-name="Uacute" horiz-adv-x="560" d="M408 857Q408 840 392 824L297 728Q288 717 280 715T264 712Q252 712 243 720T233 745Q233 759 246 770L338 866Q348 874 355 880T376 886Q391 886 398 877T408 857ZM77 631Q77 647 87 657T112
667Q127 667 136 657T146 631V221Q146 182 153 159T179 114Q216 69 280 69Q342 69 381 114Q400 135 407 158T414 221V631Q414 647 423 657T448 667Q464 667 473 657T483 631V223Q483 173 474 140T444 78Q417 41 374 21T280 0Q230 0 187 20T116 78Q95 107 86 140T77
223V631Z" />
<glyph unicode="&#xdb;" glyph-name="Ucircumflex" horiz-adv-x="560" d="M204 738Q198 733 191 730T176 727Q162 727 154 735T145 759Q145 768 149 775T169 797L244 865Q252 871 260 876T280 882Q293 882 302 876T318 864L393 796Q409 782 412 775T415 759Q415
744 406 736T384 727Q370 727 350 742L280 809L204 738ZM76 631Q76 647 86 657T112 667Q128 667 137 657T147 631V221Q147 182 154 159T180 114Q217 69 280 69Q342 69 381 114Q400 135 407 158T414 221V631Q414 647 423 657T449 667Q465 667 474 657T484 631V223Q484
173 475 140T445 78Q418 41 374 21T280 0Q230 0 187 20T115 78Q94 107 85 140T76 223V631Z" />
<glyph unicode="&#xdc;" glyph-name="Udieresis" horiz-adv-x="560" d="M140 795Q140 818 155 833T193 848Q214 848 229 833T245 795Q245 773 230 759T193 744Q171 744 156 758T140 795ZM315 795Q315 818 330 833T367 848Q389 848 404 833T420 795Q420 773 405
759T367 744Q346 744 331 758T315 795ZM77 631Q77 647 87 657T112 667Q128 667 137 657T147 631V221Q147 182 154 159T180 114Q217 69 280 69Q342 69 381 114Q400 135 407 158T414 221V631Q414 647 423 657T448 667Q464 667 473 657T483 631V223Q483 173 474 140T444
78Q417 41 374 21T280 0Q230 0 187 20T116 78Q95 107 86 140T77 223V631Z" />
<glyph unicode="&#xdd;" glyph-name="Yacute" horiz-adv-x="511" d="M383 847Q383 830 367 814L272 718Q263 707 255 705T239 702Q227 702 218 710T208 735Q208 749 221 760L313 856Q323 864 330 870T351 876Q366 876 373 867T383 847ZM290 36Q290 20 281 10T255
0Q240 0 231 10T221 36V325L23 612Q16 622 16 632Q16 647 26 657T51 668Q70 668 81 650L222 441Q234 424 239 416T255 390Q265 407 270 415T288 441L430 650Q441 668 460 668Q474 668 484 658T494 633Q494 620 487 612L290 325V36Z" />
<glyph unicode="&#xde;" glyph-name="Thorn" horiz-adv-x="537" d="M91 631Q91 647 100 657T125 667Q141 667 150 657T160 631V567Q160 562 160 556T155 545Q161 549 166 549T176 550H270Q370 550 430 496T490 344Q490 300 475 263T432 200T366 159T283 144H180Q172
144 169 144T157 147Q159 139 159 136T160 125V36Q160 20 151 10T125 0Q110 0 101 10T91 36V631ZM160 233Q160 225 160 222T157 210Q165 212 168 212T180 213H273Q305 213 326 218T366 236Q392 254 406 283T421 347Q421 384 405 414T359 461Q324 481 269 481H168Q165
481 157 483Q159 475 159 472T160 460V233Z" />
<glyph unicode="&#xdf;" glyph-name="germandbls" horiz-adv-x="501" d="M259 667Q347 667 391 629T436 517V497Q436 452 428 428T409 392Q398 378 383 375Q400 370 413 359Q425 348 435 329T445 278V173Q445 127 437 95T408 41T354 10T268 0Q250 0 239 7T228
35Q228 50 236 59T271 69H281Q297 69 314 71T344 83T367 111T376 162V241Q376 295 364 317T318 339H298Q274 339 266 350T258 373Q258 387 265 397T299 408H312Q327 408 337 410T354 422T364 447T367 492V512Q367 557 343 577T260 598H252Q228 598 208 594T174
577T152 542T144 486V36Q144 20 135 10T109 0Q94 0 85 10T75 36V493Q75 527 84 558T115 614T169 652T251 667H259Z" />
<glyph unicode="&#xe0;" glyph-name="agrave" horiz-adv-x="442" d="M287 275Q295 275 298 275T309 272Q307 277 307 280V302Q307 360 291 383T235 406H106Q89 406 79 415T68 440Q68 456 78 465T106 475H222Q302 475 339 438T376 321V62Q376 27 367 14T332 0H213Q182
0 151 4T96 23T56 65T40 136Q40 200 82 236T193 275H287ZM287 72Q295 72 298 72T309 69Q307 77 307 80V197Q307 201 309 209Q302 207 299 207T287 206H216Q163 206 138 188T113 134Q113 103 137 88T201 72H287ZM103 692Q105 703 112 712T135 721Q148 721 155 715L173
701L265 605Q277 594 277 580Q277 563 268 555T246 547Q238 547 230 549T214 563L119 659Q103 675 103 692Z" />
<glyph unicode="&#xe1;" glyph-name="aacute" horiz-adv-x="442" d="M287 275Q295 275 298 275T309 272Q307 277 307 280V302Q307 360 291 383T235 406H106Q89 406 79 415T68 440Q68 456 78 465T106 475H222Q302 475 339 438T376 321V62Q376 27 367 14T332 0H213Q182
0 151 4T96 23T56 65T40 136Q40 200 82 236T193 275H287ZM287 72Q295 72 298 72T309 69Q307 77 307 80V197Q307 201 309 209Q302 207 299 207T287 206H216Q163 206 138 188T113 134Q113 103 137 88T201 72H287ZM339 692Q339 675 323 659L228 563Q219 552 211 550T195
547Q183 547 174 555T164 580Q164 594 177 605L269 701Q279 709 286 715T307 721Q322 721 329 712T339 692Z" />
<glyph unicode="&#xe2;" glyph-name="acircumflex" horiz-adv-x="442" d="M287 275Q295 275 298 275T309 272Q307 277 307 280V302Q307 360 291 383T235 406H106Q89 406 79 415T68 440Q68 456 78 465T106 475H222Q302 475 339 438T376 321V62Q376 27 367 14T332
0H213Q182 0 151 4T96 23T56 65T40 136Q40 200 82 236T193 275H287ZM287 72Q295 72 298 72T309 69Q307 77 307 80V197Q307 201 309 209Q302 207 299 207T287 206H216Q163 206 138 188T113 134Q113 103 137 88T201 72H287ZM141 565Q135 560 128 557T113 554Q99 554
91 562T82 586Q82 595 86 603T106 627L181 702Q189 710 197 714T217 719Q230 719 239 713T255 701L330 626Q345 611 348 603T352 586Q352 571 343 563T321 554Q307 554 287 569L217 646L141 565Z" />
<glyph unicode="&#xe3;" glyph-name="atilde" horiz-adv-x="442" d="M287 275Q295 275 298 275T309 272Q307 277 307 280V302Q307 360 291 383T235 406H106Q89 406 79 415T68 440Q68 456 78 465T106 475H222Q302 475 339 438T376 321V62Q376 27 367 14T332 0H213Q182
0 151 4T96 23T56 65T40 136Q40 200 82 236T193 275H287ZM287 72Q295 72 298 72T309 69Q307 77 307 80V197Q307 201 309 209Q302 207 299 207T287 206H216Q163 206 138 188T113 134Q113 103 137 88T201 72H287ZM165 607Q155 607 149 603T138 595T126 586T110 582Q95
582 87 591T78 612Q78 624 84 636T100 657T125 672T156 678Q172 678 187 674T217 664T247 654T276 650Q286 650 292 654T304 663T315 672T331 676Q347 676 355 667T364 642Q364 631 358 620T342 601T317 587T286 581Q270 581 255 585T224 594T195 603T165 607Z"
/>
<glyph unicode="&#xe4;" glyph-name="adieresis" horiz-adv-x="442" d="M287 275Q295 275 298 275T309 272Q307 277 307 280V302Q307 360 291 383T235 406H106Q89 406 79 415T68 440Q68 456 78 465T106 475H222Q302 475 339 438T376 321V62Q376 27 367 14T332
0H213Q182 0 151 4T96 23T56 65T40 136Q40 200 82 236T193 275H287ZM287 72Q295 72 298 72T309 69Q307 77 307 80V197Q307 201 309 209Q302 207 299 207T287 206H216Q163 206 138 188T113 134Q113 103 137 88T201 72H287ZM99 625Q99 645 112 658T146 672Q166 672
179 658T193 624Q193 605 180 592T146 578Q126 578 113 591T99 625ZM249 625Q249 645 262 658T296 672Q316 672 329 658T343 624Q343 605 330 592T296 578Q276 578 263 591T249 625Z" />
<glyph unicode="&#xe5;" glyph-name="aring" horiz-adv-x="442" d="M287 275Q295 275 298 275T309 272Q307 277 307 280V302Q307 360 291 383T235 406H106Q89 406 79 415T68 440Q68 456 78 465T106 475H222Q302 475 339 438T376 321V62Q376 27 367 14T332 0H213Q182
0 151 4T96 23T56 65T40 136Q40 200 82 236T193 275H287ZM125 618Q125 658 153 684T223 711Q263 711 291 685T319 618Q319 577 291 551T223 525Q181 525 153 551T125 618ZM287 72Q295 72 298 72T309 69Q307 77 307 80V197Q307 201 309 209Q302 207 299 207T287
206H216Q163 206 138 188T113 134Q113 103 137 88T201 72H287ZM175 618Q175 598 188 585T223 571Q242 571 255 584T269 618Q269 637 256 651T223 665Q202 665 189 651T175 618Z" />
<glyph unicode="&#xe6;" glyph-name="ae" horiz-adv-x="680" d="M588 204H384Q381 204 373 206Q375 199 375 197T376 187V149Q376 119 380 103T394 80T421 71T465 69H599Q616 69 626 60T636 35Q636 19 626 10T599 0H426Q387 0 368 6T336 26Q331 15 323 8T290 0H209Q178
0 147 4T92 23T52 65T36 136Q36 201 78 237T189 276L283 275Q291 275 294 275T305 272Q303 277 303 280V302Q303 360 287 383T231 406H102Q85 406 75 415T64 440Q64 456 74 465T102 475H218Q313 475 349 420Q371 446 402 460T470 475Q517 475 548 460T599 418T627
357T635 284Q635 258 634 243T627 219T612 207T588 204ZM288 72Q296 72 299 72T310 69Q306 75 305 80T303 97V197Q303 201 305 209Q298 207 295 207T283 206H212Q159 206 134 188T109 134Q109 103 133 88T197 72H288ZM548 273Q554 273 557 273T566 269V283Q566
349 543 377T471 406Q376 406 376 285V268Q381 271 385 271T394 273H548Z" />
<glyph unicode="&#xe7;" glyph-name="ccedilla" horiz-adv-x="354" d="M299 475Q314 475 325 465T336 441Q336 427 326 417T301 406H217Q171 406 153 386T134 317V158Q134 108 152 89T217 69H301Q315 69 325 59T336 34Q336 20 325 10T299 0H212L202 -43Q251 -45
269 -69T287 -128Q287 -163 262 -190T183 -217Q150 -217 130 -205T103 -179Q100 -172 101 -164T109 -150Q116 -143 127 -143T145 -149L150 -154Q165 -167 181 -167Q200 -167 210 -156T220 -128Q220 -112 210 -100T176 -87H165Q141 -87 141 -66Q141 -64 142 -57T145
-48L159 6Q65 30 65 154V321Q65 475 212 475H299Z" />
<glyph unicode="&#xe8;" glyph-name="egrave" horiz-adv-x="423" d="M333 204H129Q126 204 118 206Q120 199 120 197T121 187V169Q121 139 125 120T139 90T166 74T210 69H344Q361 69 371 60T381 35Q381 19 371 10T344 0H209Q157 0 126 10T78 46Q68 60 64 75T55
116Q53 128 53 138T52 156V302Q52 339 64 370T98 425T150 461T215 475Q262 475 293 460T344 418T372 357T380 284Q380 258 379 243T372 219T357 207T333 204ZM293 273Q299 273 302 273T311 269V283Q311 349 288 377T216 406Q121 406 121 285V268Q126 271 130 271T139
273H293ZM104 692Q106 703 113 712T136 721Q149 721 156 715L174 701L266 605Q278 594 278 580Q278 563 269 555T247 547Q239 547 231 549T215 563L120 659Q104 675 104 692Z" />
<glyph unicode="&#xe9;" glyph-name="eacute" horiz-adv-x="423" d="M333 204H129Q126 204 118 206Q120 199 120 197T121 187V169Q121 139 125 120T139 90T166 74T210 69H344Q361 69 371 60T381 35Q381 19 371 10T344 0H209Q157 0 126 10T78 46Q68 60 64 75T55
116Q53 128 53 138T52 156V302Q52 339 64 370T98 425T150 461T215 475Q262 475 293 460T344 418T372 357T380 284Q380 258 379 243T372 219T357 207T333 204ZM293 273Q299 273 302 273T311 269V283Q311 349 288 377T216 406Q121 406 121 285V268Q126 271 130 271T139
273H293ZM349 692Q349 675 333 659L238 563Q229 552 221 550T205 547Q193 547 184 555T174 580Q174 594 187 605L279 701Q289 709 296 715T317 721Q332 721 339 712T349 692Z" />
<glyph unicode="&#xea;" glyph-name="ecircumflex" horiz-adv-x="423" d="M333 204H129Q126 204 118 206Q120 199 120 197T121 187V169Q121 139 125 120T139 90T166 74T210 69H344Q361 69 371 60T381 35Q381 19 371 10T344 0H209Q157 0 126 10T78 46Q68 60 64
75T55 116Q53 128 53 138T52 156V302Q52 339 64 370T98 425T150 461T215 475Q262 475 293 460T344 418T372 357T380 284Q380 258 379 243T372 219T357 207T333 204ZM150 555Q144 550 137 547T122 544Q108 544 100 552T91 576Q91 585 95 593T115 617L190 692Q198
700 206 704T226 709Q239 709 248 703T264 691L339 616Q354 601 357 593T361 576Q361 561 352 553T330 544Q316 544 296 559L226 636L150 555ZM293 273Q299 273 302 273T311 269V283Q311 349 288 377T216 406Q121 406 121 285V268Q126 271 130 271T139 273H293Z"
/>
<glyph unicode="&#xeb;" glyph-name="edieresis" horiz-adv-x="423" d="M333 204H129Q126 204 118 206Q120 199 120 197T121 187V169Q121 139 125 120T139 90T166 74T210 69H344Q361 69 371 60T381 35Q381 19 371 10T344 0H209Q157 0 126 10T78 46Q68 60 64 75T55
116Q53 128 53 138T52 156V302Q52 339 64 370T98 425T150 461T215 475Q262 475 293 460T344 418T372 357T380 284Q380 258 379 243T372 219T357 207T333 204ZM293 273Q299 273 302 273T311 269V283Q311 349 288 377T216 406Q121 406 121 285V268Q126 271 130 271T139
273H293ZM101 625Q101 645 114 658T148 672Q168 672 181 658T195 624Q195 605 182 592T148 578Q128 578 115 591T101 625ZM251 625Q251 645 264 658T298 672Q318 672 331 658T345 624Q345 605 332 592T298 578Q278 578 265 591T251 625Z" />
<glyph unicode="&#xec;" glyph-name="igrave" horiz-adv-x="220" d="M75 438Q75 455 84 465T109 475Q125 475 134 465T144 438V36Q144 20 135 10T109 0Q94 0 85 10T75 36V438ZM-9 692Q-7 703 0 712T23 721Q36 721 43 715L61 701L153 605Q165 594 165 580Q165 563
156 555T134 547Q126 547 118 549T102 563L7 659Q-9 675 -9 692Z" />
<glyph unicode="&#xed;" glyph-name="iacute" horiz-adv-x="220" d="M75 438Q75 455 84 465T109 475Q125 475 134 465T144 438V36Q144 20 135 10T109 0Q94 0 85 10T75 36V438ZM239 692Q239 675 223 659L128 563Q119 552 111 550T95 547Q83 547 74 555T64 580Q64
594 77 605L169 701Q179 709 186 715T207 721Q222 721 229 712T239 692Z" />
<glyph unicode="&#xee;" glyph-name="icircumflex" horiz-adv-x="220" d="M75 438Q75 455 84 465T109 475Q125 475 134 465T144 438V36Q144 20 135 10T109 0Q94 0 85 10T75 36V438ZM34 555Q28 550 21 547T6 544Q-8 544 -16 552T-25 576Q-25 585 -21 593T-1 617L74
692Q82 700 90 704T110 709Q123 709 132 703T148 691L223 616Q238 601 241 593T245 576Q245 561 236 553T214 544Q200 544 180 559L110 636L34 555Z" />
<glyph unicode="&#xef;" glyph-name="idieresis" horiz-adv-x="220" d="M75 438Q75 455 84 465T109 475Q125 475 134 465T144 438V36Q144 20 135 10T109 0Q94 0 85 10T75 36V438ZM-12 645Q-12 665 1 678T35 692Q55 692 68 678T82 644Q82 625 69 612T35 598Q15
598 2 611T-12 645ZM138 645Q138 665 151 678T185 692Q205 692 218 678T232 644Q232 625 219 612T185 598Q165 598 152 611T138 645Z" />
<glyph unicode="&#xf0;" glyph-name="eth" horiz-adv-x="441" d="M49 291Q49 332 61 366T95 424T149 461T220 475Q239 475 256 472T288 462Q277 492 258 516T211 564L131 517Q117 508 110 505T96 501Q90 501 85 507T79 521Q79 529 86 535T110 553L139 572Q150
580 155 582T168 585Q161 588 157 590T146 594T131 599T104 609Q90 614 85 621T80 637Q80 651 89 659T109 667Q118 667 138 661T176 649L225 629L305 685Q319 695 328 695Q334 695 340 689T347 674Q347 666 342 661T322 645L295 626Q284 619 277 615T260 608Q290
584 313 556T352 488T378 397T389 273L391 184Q392 143 380 109T345 51T291 14T220 0Q181 0 150 13T96 51T61 109T49 184V291ZM118 203Q118 138 144 104T220 69Q269 69 295 103T322 203V269Q322 406 221 406Q118 406 118 269V203Z" />
<glyph unicode="&#xf1;" glyph-name="ntilde" horiz-adv-x="479" d="M247 406H152Q149 406 141 408Q143 400 143 397T144 385V36Q144 20 135 10T109 0Q94 0 85 10T75 36V425Q75 454 87 464T135 475H262Q353 475 387 423Q398 406 405 373T412 302V36Q412 20 402
10T378 0Q362 0 353 10T343 36V297Q343 329 339 350T324 383T295 401T247 406ZM183 607Q173 607 167 603T156 595T144 586T128 582Q113 582 105 591T96 612Q96 624 102 636T118 657T143 672T174 678Q190 678 205 674T235 664T265 654T294 650Q304 650 310 654T322
663T333 672T349 676Q365 676 373 667T382 642Q382 631 376 620T360 601T335 587T304 581Q288 581 273 585T242 594T213 603T183 607Z" />
<glyph unicode="&#xf2;" glyph-name="ograve" horiz-adv-x="440" d="M49 291Q49 332 61 366T95 424T149 461T220 475Q259 475 290 462T344 424T379 366T391 291V184Q391 143 379 109T345 51T291 14T220 0Q181 0 150 13T96 51T61 109T49 184V291ZM118 203Q118 138
144 104T220 69Q269 69 295 103T322 203V269Q322 406 221 406Q118 406 118 269V203ZM112 692Q114 703 121 712T144 721Q157 721 164 715L182 701L274 605Q286 594 286 580Q286 563 277 555T255 547Q247 547 239 549T223 563L128 659Q112 675 112 692Z" />
<glyph unicode="&#xf3;" glyph-name="oacute" horiz-adv-x="440" d="M49 291Q49 332 61 366T95 424T149 461T220 475Q259 475 290 462T344 424T379 366T391 291V184Q391 143 379 109T345 51T291 14T220 0Q181 0 150 13T96 51T61 109T49 184V291ZM118 203Q118 138
144 104T220 69Q269 69 295 103T322 203V269Q322 406 221 406Q118 406 118 269V203ZM348 692Q348 675 332 659L237 563Q228 552 220 550T204 547Q192 547 183 555T173 580Q173 594 186 605L278 701Q288 709 295 715T316 721Q331 721 338 712T348 692Z" />
<glyph unicode="&#xf4;" glyph-name="ocircumflex" horiz-adv-x="440" d="M49 291Q49 332 61 366T95 424T149 461T220 475Q259 475 290 462T344 424T379 366T391 291V184Q391 143 379 109T345 51T291 14T220 0Q181 0 150 13T96 51T61 109T49 184V291ZM118 203Q118
138 144 104T220 69Q269 69 295 103T322 203V269Q322 406 221 406Q118 406 118 269V203ZM153 555Q147 550 140 547T125 544Q111 544 103 552T94 576Q94 585 98 593T118 617L193 692Q201 700 209 704T229 709Q242 709 251 703T267 691L342 616Q357 601 360 593T364
576Q364 561 355 553T333 544Q319 544 299 559L229 636L153 555Z" />
<glyph unicode="&#xf5;" glyph-name="otilde" horiz-adv-x="440" d="M49 291Q49 332 61 366T95 424T149 461T220 475Q259 475 290 462T344 424T379 366T391 291V184Q391 143 379 109T345 51T291 14T220 0Q181 0 150 13T96 51T61 109T49 184V291ZM118 203Q118 138
144 104T220 69Q269 69 295 103T322 203V269Q322 406 221 406Q118 406 118 269V203ZM164 597Q154 597 148 593T137 585T125 576T109 572Q94 572 86 581T77 602Q77 614 83 626T99 647T124 662T155 668Q171 668 186 664T216 654T246 644T275 640Q285 640 291 644T303
653T314 662T330 666Q346 666 354 657T363 632Q363 621 357 610T341 591T316 577T285 571Q269 571 254 575T223 584T194 593T164 597Z" />
<glyph unicode="&#xf6;" glyph-name="odieresis" horiz-adv-x="440" d="M49 291Q49 332 61 366T95 424T149 461T220 475Q259 475 290 462T344 424T379 366T391 291V184Q391 143 379 109T345 51T291 14T220 0Q181 0 150 13T96 51T61 109T49 184V291ZM118 203Q118
138 144 104T220 69Q269 69 295 103T322 203V269Q322 406 221 406Q118 406 118 269V203ZM98 625Q98 645 111 658T145 672Q165 672 178 658T192 624Q192 605 179 592T145 578Q125 578 112 591T98 625ZM248 625Q248 645 261 658T295 672Q315 672 328 658T342 624Q342
605 329 592T295 578Q275 578 262 591T248 625Z" />
<glyph unicode="&#xf7;" glyph-name="divide" horiz-adv-x="446" d="M223 443Q242 443 255 430T269 398Q269 379 256 366T223 352Q204 352 191 365T178 398Q178 417 191 430T223 443ZM223 125Q242 125 255 112T269 79Q269 60 256 47T223 34Q204 34 191 47T178
79Q178 98 191 111T223 125ZM347 273Q372 273 378 272T391 266Q405 255 405 239Q405 218 388 208Q383 205 377 205T347 204H100Q75 204 69 205T55 211Q42 221 42 239Q42 248 46 256T59 269Q64 272 70 272T100 273H347Z" />
<glyph unicode="&#xf8;" glyph-name="oslash" horiz-adv-x="435" d="M338 480Q349 498 368 498Q382 498 392 488T402 463Q402 457 401 453T396 443L362 397Q389 354 389 291V184Q389 143 377 109T342 51T288 14T218 0Q191 0 169 6T124 28L99 -6Q88 -24 69 -24Q54
-24 44 -14T34 11Q34 20 41 31L74 78Q47 121 47 184V291Q47 332 59 366T94 424T148 461T219 475Q245 475 267 469T313 447L338 480ZM116 203Q116 188 117 177T123 149Q132 165 138 176T151 197T164 219T184 249L265 374Q268 380 270 382T277 388Q261 398 249 402T220
406Q116 406 116 269V203ZM175 108Q170 100 168 97T158 88Q174 78 187 74T218 69Q268 69 294 103T320 203V269Q320 285 319 297T315 326Q305 310 299 300T286 279T272 256T251 223L175 108Z" />
<glyph unicode="&#xf9;" glyph-name="ugrave" horiz-adv-x="479" d="M224 69H326Q329 69 337 67Q335 74 335 78T334 90V438Q334 455 344 465T369 475Q384 475 393 465T403 438V50Q403 22 393 11T356 0H215Q173 0 144 11T98 43T74 95T66 167V438Q66 455 75 465T100
475Q116 475 125 465T135 438V178Q135 147 138 126T151 93T178 75T224 69ZM122 692Q124 703 131 712T154 721Q167 721 174 715L192 701L284 605Q296 594 296 580Q296 563 287 555T265 547Q257 547 249 549T233 563L138 659Q122 675 122 692Z" />
<glyph unicode="&#xfa;" glyph-name="uacute" horiz-adv-x="479" d="M224 69H326Q329 69 337 67Q335 74 335 78T334 90V438Q334 455 344 465T369 475Q384 475 393 465T403 438V50Q403 22 393 11T356 0H215Q173 0 144 11T98 43T74 95T66 167V438Q66 455 75 465T100
475Q116 475 125 465T135 438V178Q135 147 138 126T151 93T178 75T224 69ZM361 692Q361 675 345 659L250 563Q241 552 233 550T217 547Q205 547 196 555T186 580Q186 594 199 605L291 701Q301 709 308 715T329 721Q344 721 351 712T361 692Z" />
<glyph unicode="&#xfb;" glyph-name="ucircumflex" horiz-adv-x="479" d="M224 69H326Q329 69 337 67Q335 74 335 78T334 90V438Q334 455 344 465T369 475Q384 475 393 465T403 438V50Q403 22 393 11T356 0H215Q173 0 144 11T98 43T74 95T66 167V438Q66 455 75
465T100 475Q116 475 125 465T135 438V178Q135 147 138 126T151 93T178 75T224 69ZM163 565Q157 560 150 557T135 554Q121 554 113 562T104 586Q104 595 108 603T128 627L203 702Q211 710 219 714T239 719Q252 719 261 713T277 701L352 626Q367 611 370 603T374
586Q374 571 365 563T343 554Q329 554 309 569L239 646L163 565Z" />
<glyph unicode="&#xfc;" glyph-name="udieresis" horiz-adv-x="479" d="M224 69H326Q329 69 337 67Q335 74 335 78T334 90V438Q334 455 344 465T369 475Q384 475 393 465T403 438V50Q403 22 393 11T356 0H215Q173 0 144 11T98 43T74 95T66 167V438Q66 455 75 465T100
475Q116 475 125 465T135 438V178Q135 147 138 126T151 93T178 75T224 69ZM268 625Q268 645 281 658T315 672Q335 672 348 658T362 624Q362 605 349 592T315 578Q295 578 282 591T268 625ZM118 625Q118 645 131 658T165 672Q185 672 198 658T212 624Q212 605 199
592T165 578Q145 578 132 591T118 625Z" />
<glyph unicode="&#xfd;" glyph-name="yacute" horiz-adv-x="380" d="M16 425Q14 430 13 435T12 446Q12 459 22 467T48 476Q64 476 70 469T81 450L165 230Q169 219 174 203T184 173Q189 155 195 138H199Q204 159 210 182Q215 202 222 224T237 270L301 450Q306 462
312 469T334 476Q348 476 358 469T369 447Q369 439 368 435T366 428L185 -85Q165 -144 141 -168T76 -192Q53 -192 40 -184T27 -159Q27 -147 32 -140T45 -130T62 -126T80 -125Q93 -124 100 -117T115 -90L164 55L16 425ZM317 692Q317 675 301 659L206 563Q197 552
189 550T173 547Q161 547 152 555T142 580Q142 594 155 605L247 701Q257 709 264 715T285 721Q300 721 307 712T317 692Z" />
<glyph unicode="&#xfe;" glyph-name="thorn" horiz-adv-x="478" d="M164 0Q156 0 153 0T141 3Q143 -5 143 -8T144 -20V-155Q144 -172 135 -182T109 -192Q94 -192 85 -182T75 -155V631Q75 647 84 657T110 667Q125 667 135 657T145 631V475H255Q301 475 329 466T376
434Q412 394 412 321V154Q412 75 375 38T260 0H164ZM144 90Q144 82 144 78T141 67Q149 69 152 69H254Q306 69 324 88T343 158V317Q343 368 325 387T254 406H152Q149 406 141 408Q143 400 143 397T144 385V90Z" />
<glyph unicode="&#xff;" glyph-name="ydieresis" horiz-adv-x="380" d="M16 425Q14 430 13 435T12 446Q12 459 22 467T48 476Q64 476 70 469T81 450L165 230Q169 219 174 203T184 173Q189 155 195 138H199Q204 159 210 182Q215 202 222 224T237 270L301 450Q306
462 312 469T334 476Q348 476 358 469T369 447Q369 439 368 435T366 428L185 -85Q165 -144 141 -168T76 -192Q53 -192 40 -184T27 -159Q27 -147 32 -140T45 -130T62 -126T80 -125Q93 -124 100 -117T115 -90L164 55L16 425ZM68 625Q68 645 81 658T115 672Q135 672
148 658T162 624Q162 605 149 592T115 578Q95 578 82 591T68 625ZM218 625Q218 645 231 658T265 672Q285 672 298 658T312 624Q312 605 299 592T265 578Q245 578 232 591T218 625Z" />
<glyph unicode="&#x131;" glyph-name="dotlessi" horiz-adv-x="220" d="M75 438Q75 455 84 465T109 475Q125 475 134 465T144 438V36Q144 20 135 10T109 0Q94 0 85 10T75 36V438Z" />
<glyph unicode="&#x141;" glyph-name="Lslash" horiz-adv-x="435" d="M93 338V631Q93 647 103 657T128 667Q143 667 152 657T162 631V378L275 443Q288 451 300 449T321 432Q329 420 325 408T307 387L162 303V89Q162 81 162 78T159 67Q167 69 170 69H389Q405 69
415 60T426 35Q426 19 416 10T389 0H135Q112 0 103 9T93 43V263L59 244Q45 236 33 238T13 254Q5 267 9 279T27 300L93 338Z" />
<glyph unicode="&#x142;" glyph-name="lslash" horiz-adv-x="289" d="M235 429Q248 437 260 435T281 418Q289 406 285 394T267 373L179 323V149Q179 127 180 114T187 91T202 75T229 58Q244 49 244 33Q244 18 235 9T212 0Q192 0 170 12T134 41Q120 58 115 80T110
137V283L68 260Q54 252 42 254T22 270Q14 283 18 295T36 316L110 358V631Q110 647 120 657T145 667Q159 667 169 657T179 631V397L235 429Z" />
<glyph unicode="&#x152;" glyph-name="OE" horiz-adv-x="748" d="M394 59Q341 0 260 0Q209 0 163 23T91 85Q56 138 56 223V447Q56 496 71 536T113 606T178 651T261 667Q298 667 328 656T393 619L395 620Q394 622 393 624T392 629Q390 646 402 656T434 667H687Q704
667 714 658T725 632Q725 617 715 608T687 598H469Q466 598 458 600Q460 592 460 589T461 577V418Q461 410 461 407T458 396Q466 398 469 398H621Q637 398 647 389T657 364Q657 348 647 339T621 329H469Q466 329 458 331Q460 324 460 321T461 309V90Q461 82 461
78T458 67Q466 69 469 69H687Q704 69 714 60T725 35Q725 19 715 10T687 0H434Q412 0 402 10T392 43V48Q392 49 393 50L395 52L398 58L394 59ZM392 449Q392 516 356 556T259 597Q195 597 160 558T125 446V223Q125 194 130 171T145 131Q161 102 192 86T259 69Q296
69 326 86T374 133Q392 166 392 218V449Z" />
<glyph unicode="&#x153;" glyph-name="oe" horiz-adv-x="695" d="M49 291Q49 332 61 366T95 424T149 461T219 475Q258 475 290 460T355 411Q377 440 412 457T486 475Q531 475 569 452T627 390Q639 369 644 342T650 284Q650 258 649 243T642 219T627 207T603 204H399Q396
204 388 206Q390 199 390 197T391 187V169Q391 139 395 120T409 90T436 74T480 69H614Q631 69 641 60T651 35Q651 19 641 10T614 0H479Q424 0 394 13T346 55Q293 0 219 0Q181 0 150 13T96 51T61 108T49 183V291ZM118 203Q118 138 144 104T219 69Q269 69 295 103T322
203V269Q322 406 220 406Q118 406 118 269V203ZM563 273Q569 273 572 273T581 269Q581 307 577 327T563 366Q552 385 533 395T486 406Q391 406 391 285V273H563Z" />
<glyph unicode="&#x160;" glyph-name="Scaron" horiz-adv-x="470" d="M321 861Q327 866 334 869T349 872Q363 872 371 864T380 840Q380 831 376 824T356 802L281 734Q273 728 265 723T245 717Q232 717 223 723T207 735L132 803Q116 817 113 824T110 840Q110 855
119 863T141 872Q155 872 175 857L245 790L321 861ZM148 345Q89 374 67 414T45 505Q45 541 59 570T98 621T159 655T239 667Q272 667 304 660T361 642T403 616T419 586Q419 573 411 563T392 553Q379 553 354 567Q327 583 300 590T239 598Q171 598 143 570T114 505Q114
468 129 447T180 407L333 328Q393 297 413 257T434 168Q434 128 419 97T377 44T312 11T228 0Q193 0 158 8T95 30T49 60T31 92Q31 105 40 115T60 126Q79 126 92 117T122 98T164 78T233 69Q291 69 328 93T365 164Q365 192 352 220T294 271L148 345Z" />
<glyph unicode="&#x161;" glyph-name="scaron" horiz-adv-x="380" d="M116 355Q116 327 130 313T174 288L230 268Q291 247 317 218T344 139Q344 105 333 79T301 36T251 9T188 0Q142 -1 112 6T63 26T37 53T29 81Q29 95 38 105T63 117Q75 117 80 114T90 105T99 93T114
81T143 72T193 69Q228 70 252 85T275 133Q274 159 260 174T216 200L140 228Q124 234 108 242T79 265T56 299T47 349Q46 411 86 442T193 475Q220 475 244 473T286 463T316 446T328 419Q328 404 321 394T293 383Q283 383 277 387T260 395T234 403T189 406Q152 405
134 392T116 355ZM278 693Q284 698 291 701T306 704Q320 704 328 696T337 672Q337 663 333 655T313 631L238 556Q230 548 222 544T202 539Q189 539 180 545T164 557L89 632Q74 647 71 655T67 672Q67 687 76 695T98 704Q112 704 132 689L202 612L278 693Z" />
<glyph unicode="&#x178;" glyph-name="Ydieresis" horiz-adv-x="511" d="M115 795Q115 818 130 833T168 848Q189 848 204 833T220 795Q220 773 205 759T168 744Q146 744 131 758T115 795ZM290 795Q290 818 305 833T342 848Q364 848 379 833T395 795Q395 773 380
759T342 744Q321 744 306 758T290 795ZM290 36Q290 20 281 10T255 0Q240 0 231 10T221 36V325L23 612Q16 622 16 632Q16 647 26 657T51 668Q70 668 81 650L222 441Q234 424 239 416T255 390Q265 407 270 415T288 441L430 650Q441 668 460 668Q474 668 484 658T494
633Q494 620 487 612L290 325V36Z" />
<glyph unicode="&#x17d;" glyph-name="Zcaron" horiz-adv-x="440" d="M291 532Q302 550 309 562T331 598Q305 597 290 597H54Q37 597 27 606T17 632Q17 648 27 657T54 667H356Q391 667 406 661T422 639Q422 624 408 599L150 135L111 69Q136 70 151 70H387Q404
70 414 61T424 36Q424 19 414 10T387 0H68Q20 0 20 30Q20 39 23 47T37 76L291 532ZM296 871Q302 876 309 879T324 882Q338 882 346 874T355 850Q355 841 351 834T331 812L256 744Q248 738 240 733T220 727Q207 727 198 733T182 745L107 813Q91 827 88 834T85 850Q85
865 94 873T116 882Q130 882 150 867L220 800L296 871Z" />
<glyph unicode="&#x17e;" glyph-name="zcaron" horiz-adv-x="377" d="M116 67Q130 68 139 68T158 69H320Q337 69 347 60T357 35Q357 19 347 10T320 0H96Q20 0 20 35Q20 43 23 50T38 76L213 334Q222 347 228 356L239 372Q244 380 249 387T264 406L263 408Q249 407
240 407T221 406H57Q40 406 30 415T20 440Q20 456 30 465T57 475H312Q357 475 357 444Q357 433 352 422T330 385L166 141Q157 128 151 120T140 104T130 88T115 69L116 67ZM265 703Q271 708 278 711T293 714Q307 714 315 706T324 682Q324 673 320 665T300 641L225
566Q217 558 209 554T189 549Q176 549 167 555T151 567L76 642Q61 657 58 665T54 682Q54 697 63 705T85 714Q99 714 119 699L189 622L265 703Z" />
<glyph unicode="&#x2c6;" glyph-name="circumflex" horiz-adv-x="500" d="M174 565Q168 560 161 557T146 554Q132 554 124 562T115 586Q115 595 119 603T139 627L214 702Q222 710 230 714T250 719Q263 719 272 713T288 701L363 626Q378 611 381 603T385 586Q385
571 376 563T354 554Q340 554 320 569L250 646L174 565Z" />
<glyph unicode="&#x2c7;" glyph-name="caron" horiz-adv-x="500" d="M326 703Q332 708 339 711T354 714Q368 714 376 706T385 682Q385 673 381 665T361 641L286 566Q278 558 270 554T250 549Q237 549 228 555T212 567L137 642Q122 657 119 665T115 682Q115 697
124 705T146 714Q160 714 180 699L250 622L326 703Z" />
<glyph unicode="&#x2d8;" glyph-name="breve" horiz-adv-x="500" d="M107 680Q107 698 117 706T142 714Q156 714 162 707T172 690T179 667T189 645T210 627T250 620Q287 620 300 634T319 667T329 699T356 714Q370 714 380 706T390 680Q390 656 381 633T354 593T310
566T250 555Q181 555 144 591T107 680Z" />
<glyph unicode="&#x2d9;" glyph-name="dotaccent" horiz-adv-x="500" d="M203 625Q203 645 216 658T250 672Q270 672 283 658T297 624Q297 605 284 592T250 578Q230 578 217 591T203 625Z" />
<glyph unicode="&#x2da;" glyph-name="ring" horiz-adv-x="500" d="M153 638Q153 678 181 704T251 731Q291 731 319 705T347 638Q347 597 319 571T251 545Q209 545 181 571T153 638ZM203 638Q203 618 216 605T251 591Q270 591 283 604T297 638Q297 657 284 671T251
685Q230 685 217 671T203 638Z" />
<glyph unicode="&#x2db;" glyph-name="ogonek" horiz-adv-x="500" d="M319 7Q295 -7 277 -22Q261 -36 249 -52T236 -86Q236 -98 240 -105T250 -117T263 -122T275 -123Q280 -123 288 -122T302 -117L315 -111Q321 -108 327 -106T339 -103Q367 -103 367 -133Q367
-144 361 -151Q347 -168 321 -175T269 -183Q224 -183 197 -161T169 -100Q169 -70 182 -48T213 -11Q232 6 258 18L319 7Z" />
<glyph unicode="&#x2dc;" glyph-name="tilde" horiz-adv-x="500" d="M194 607Q184 607 178 603T167 595T155 586T139 582Q124 582 116 591T107 612Q107 624 113 636T129 657T154 672T185 678Q201 678 216 674T246 664T276 654T305 650Q315 650 321 654T333 663T344
672T360 676Q376 676 384 667T393 642Q393 631 387 620T371 601T346 587T315 581Q299 581 284 585T253 594T224 603T194 607Z" />
<glyph unicode="&#x2dd;" glyph-name="hungarumlaut" horiz-adv-x="500" d="M257 692Q257 675 241 659L146 563Q137 552 129 550T113 547Q101 547 92 555T82 580Q82 594 95 605L187 701Q197 709 204 715T225 721Q240 721 247 712T257 692ZM417 692Q417 675 401
659L306 563Q297 552 289 550T273 547Q261 547 252 555T242 580Q242 594 255 605L347 701Q357 709 364 715T385 721Q400 721 407 712T417 692Z" />
<glyph unicode="&#x2013;" glyph-name="endash" horiz-adv-x="565" d="M480 282Q497 282 507 273T517 247Q517 232 507 223T480 213H84Q67 213 57 222T47 247Q47 263 57 272T84 282H480Z" />
<glyph unicode="&#x2014;" glyph-name="emdash" horiz-adv-x="767" d="M682 282Q698 282 708 273T719 247Q719 232 709 223T682 213H85Q68 213 58 222T48 247Q48 263 58 272T85 282H682Z" />
<glyph unicode="&#x2018;" glyph-name="quoteleft" horiz-adv-x="197" d="M142 537Q144 530 146 519T148 501Q148 487 139 478T116 468Q99 468 91 478T76 519L53 603Q51 610 50 621T48 639Q48 654 57 663T81 672Q90 672 97 668T108 656L112 647Q114 644 115 638T120
621L142 537Z" />
<glyph unicode="&#x2019;" glyph-name="quoteright" horiz-adv-x="197" d="M75 621Q83 651 91 661T116 672Q130 672 139 663T148 639Q148 633 146 622T142 603L120 519Q117 508 116 502T113 493T110 489T108 484Q105 476 98 472T81 468Q66 468 57 477T48 501Q48
507 49 519T53 537L75 621Z" />
<glyph unicode="&#x201a;" glyph-name="quotesinglbase" horiz-adv-x="172" d="M50 28Q58 58 65 68T90 79Q104 79 113 70T122 46Q122 39 120 29T116 10L94 -74Q91 -85 90 -91T87 -100T85 -104T83 -109Q79 -116 72 -120T55 -125Q41 -125 32 -116T22 -92Q22 -86
24 -74T28 -56L50 28Z" />
<glyph unicode="&#x201c;" glyph-name="quotedblleft" horiz-adv-x="345" d="M201 603Q199 610 198 621T197 640Q197 654 206 663T229 672Q245 672 253 662T269 621L291 537Q293 529 294 518T296 501Q296 486 287 477T263 468Q255 468 250 470T240 477T232 492T224
519L201 603ZM55 603Q53 611 52 622T50 640Q50 654 59 663T82 672Q99 672 106 662T122 621L144 537Q146 531 147 519T149 501Q149 487 140 478T116 468Q97 468 89 484Q87 487 87 488T85 493T82 502T77 519L55 603Z" />
<glyph unicode="&#x201d;" glyph-name="quotedblright" horiz-adv-x="345" d="M76 621Q84 652 91 662T116 672Q130 672 139 663T149 639Q149 633 147 622T143 603L121 519Q118 508 117 502T114 493T111 489T109 484Q106 476 99 472T82 468Q67 468 58 477T49 501Q49
507 50 519T54 537L76 621ZM223 621Q231 652 238 662T263 672Q277 672 286 663T295 639Q295 633 294 622T290 603L268 519Q265 508 264 502T261 493T258 489T256 484Q248 468 229 468Q214 468 205 477T196 501Q196 508 197 519T201 537L223 621Z" />
<glyph unicode="&#x201e;" glyph-name="quotedblbase" horiz-adv-x="345" d="M76 28Q84 58 91 68T116 79Q130 79 139 70T149 46Q149 39 147 29T143 10L121 -74Q118 -85 117 -91T114 -100T111 -104T109 -109Q102 -125 82 -125Q67 -125 58 -116T49 -92Q49 -86 50
-74T54 -56L76 28ZM223 28Q231 58 238 68T263 79Q277 79 286 70T295 46Q295 39 294 29T290 10L268 -74Q265 -85 264 -91T261 -100T258 -104T256 -109Q252 -116 245 -120T229 -125Q214 -125 205 -116T196 -92Q196 -86 197 -74T201 -56L223 28Z" />
<glyph unicode="&#x2020;" glyph-name="dagger" horiz-adv-x="463" d="M176 500Q184 500 187 500T199 496Q197 504 197 507V631Q197 647 206 657T231 667Q247 667 256 657T266 631V520Q266 512 266 509T263 497Q271 499 274 499T286 500L377 499Q394 499 404 490T414
465Q414 450 404 440T377 430H286Q278 430 275 430T263 433Q265 425 265 422T266 410V36Q266 20 257 10T231 0Q216 0 207 10T197 36V421Q197 425 199 433Q191 431 188 431T176 430H85Q69 430 59 440T48 465Q48 480 58 489T85 499L176 500Z" />
<glyph unicode="&#x2021;" glyph-name="daggerdbl" horiz-adv-x="463" d="M176 235Q184 235 187 235T199 232Q197 240 197 243V421Q197 425 199 433Q191 431 188 431T176 430H85Q69 430 59 440T48 465Q48 480 58 489T85 499H176Q184 499 187 499T199 497Q197 505
197 508V631Q197 647 206 657T231 667Q247 667 256 657T266 631V519Q266 511 266 508T263 496Q271 498 274 498T286 499L377 500Q394 500 404 491T414 465Q414 450 404 440T377 430H286Q278 430 275 430T263 433Q265 425 265 422T266 410V255Q266 247 266 244T263
232Q271 234 274 234T286 235H377Q393 235 403 225T414 201Q414 186 404 176T377 166H286Q278 166 275 166T263 169Q265 161 265 158T266 147V36Q266 20 257 10T231 0Q216 0 207 10T197 36V158Q197 161 199 169Q191 167 188 167T176 166H85Q69 166 59 176T48 201Q48
215 58 225T85 235H176Z" />
<glyph unicode="&#x2022;" glyph-name="bullet" horiz-adv-x="311" d="M155 489Q187 489 215 477T265 444T298 395T311 334Q311 302 299 274T265 225T216 192T155 179Q123 179 95 191T46 225T13 274T0 334Q0 366 12 394T46 443T95 476T155 489Z" />
<glyph unicode="&#x2026;" glyph-name="ellipsis" horiz-adv-x="522" d="M266 82Q283 82 294 70T306 41Q306 24 295 12T266 0Q249 0 237 12T225 41Q225 58 237 70T266 82ZM433 82Q450 82 462 70T474 41Q474 24 462 12T433 0Q415 0 403 12T391 41Q391 58 403 70T433
82ZM91 82Q108 82 120 70T132 41Q132 24 120 12T91 0Q73 0 61 12T49 41Q49 58 61 70T91 82Z" />
<glyph unicode="&#x2030;" glyph-name="perthousand" horiz-adv-x="1081" d="M196 668Q229 668 257 657T305 625T337 577T349 516Q349 483 338 456T306 408T257 376T196 364Q163 364 135 375T86 407T54 455T42 516Q42 548 53 576T86 624T135 656T196 668ZM196
599Q157 599 134 577T111 517Q111 479 134 456T196 433Q233 433 256 456T280 517Q280 554 257 576T196 599ZM536 650Q547 668 566 668Q581 668 591 658T601 632Q601 622 594 612L192 18Q180 0 162 0Q147 0 137 10T127 36Q127 45 134 56L536 650ZM536 304Q568 304
596 293T644 261T676 213T688 152Q688 119 677 92T645 44T596 12T536 0Q503 0 475 11T427 43T395 92T383 152Q383 185 394 212T426 260T475 292T536 304ZM536 235Q499 235 476 212T452 152Q452 114 475 92T536 69Q573 69 596 91T619 152Q619 189 596 212T536 235ZM886
304Q919 304 947 293T995 261T1027 213T1039 152Q1039 120 1028 92T996 44T947 12T886 0Q853 0 825 11T777 43T745 91T733 152Q733 185 744 212T776 260T825 292T886 304ZM886 235Q848 235 825 212T802 152Q802 114 825 92T886 69Q923 69 946 91T970 152Q970 189
947 212T886 235Z" />
<glyph unicode="&#x2039;" glyph-name="guilsinglleft" horiz-adv-x="296" d="M146 261Q140 255 137 253T128 246Q134 242 137 240T146 232L238 140Q250 128 250 113Q250 97 241 88T217 78Q206 78 199 82T176 102L84 195Q60 219 54 227T47 246Q47 256 53 265T84
298L176 390Q192 406 199 410T216 414Q231 414 240 405T250 380Q250 365 238 353L146 261Z" />
<glyph unicode="&#x203a;" glyph-name="guilsinglright" horiz-adv-x="296" d="M151 232Q157 238 160 240L169 246Q163 251 160 253T151 261L59 353Q47 365 47 380Q47 395 56 404T80 414Q91 414 98 410T122 390L213 298Q237 274 243 265T250 246Q250 236 244 228T213
195L122 102Q105 87 98 83T81 78Q66 78 57 87T47 113Q47 128 59 140L151 232Z" />
<glyph unicode="&#x2044;" glyph-name="fraction" horiz-adv-x="166" d="M249 650Q261 668 279 668Q294 668 304 658T314 632Q314 623 307 612L-92 14Q-104 -4 -123 -4Q-137 -4 -147 6T-157 32Q-157 43 -149 52L249 650Z" />
<glyph unicode="&#x20ac;" glyph-name="Euro" horiz-adv-x="446" d="M396 667Q413 667 423 658T434 632Q434 617 424 608T396 598H267Q209 598 186 571T163 479V448H322Q338 448 348 439T358 414Q358 399 348 390T322 381H163V305H321Q337 305 347 296T357 271Q357
254 347 245T321 236H163V188Q163 122 186 96T267 69H396Q413 69 423 60T434 35Q434 19 424 10T396 0H277Q94 0 94 176V236H43Q26 236 16 245T5 271Q5 286 15 295T43 305H94V381H43Q26 381 16 390T6 414Q6 430 16 439T43 448H94V491Q94 585 149 631Q192 667 277
667H396Z" />
<glyph unicode="&#x2122;" glyph-name="trademark" horiz-adv-x="674" d="M444 555Q451 544 455 537T463 523L470 511Q474 505 479 495Q485 505 489 511T496 524T504 537T516 555L575 649Q585 667 600 667Q623 667 623 629V370Q623 360 617 353T600 346Q589 346
583 353T576 370V475Q576 491 577 505T579 535T582 572L577 574Q572 563 569 555T562 541T554 527T543 510L510 457Q502 443 495 438T479 432Q466 432 449 457L416 510Q410 520 406 527T398 540T391 555T382 574L378 572Q379 550 380 535T382 506T383 475V370Q383
360 377 353T359 346Q349 346 343 353T336 370V629Q336 667 359 667Q374 667 384 649L444 555ZM108 602Q108 610 108 613T111 624Q103 622 100 622H36Q11 622 11 645Q11 654 18 660T36 667H230Q242 667 249 661T256 645Q256 622 230 622H167Q164 622 156 624Q158
617 158 613V371Q158 360 152 354T134 347Q122 347 115 353T108 371V602Z" />
<glyph unicode="&#x2190;" glyph-name="arrowleft" horiz-adv-x="667" d="M145 363H667V303H145L219 199L177 156L0 333L177 510L219 468L145 363Z" />
<glyph unicode="&#x2191;" glyph-name="arrowup" horiz-adv-x="454" d="M257 522V0H197V522L93 448L50 490L227 667L404 490L362 448L257 522Z" />
<glyph unicode="&#x2192;" glyph-name="arrowright" horiz-adv-x="667" d="M448 468L490 510L667 333L490 156L448 199L522 303H0V363H522L448 468Z" />
<glyph unicode="&#x2193;" glyph-name="arrowdown" horiz-adv-x="454" d="M257 145L362 220L404 177L227 0L50 177L93 220L197 145V667H257V145Z" />
<glyph unicode="&#x2194;" glyph-name="arrowboth" horiz-adv-x="667" d="M145 363H522L448 468L490 510L667 333L490 156L448 199L522 303H145L219 199L177 156L0 333L177 510L219 468L145 363Z" />
<glyph unicode="&#x2212;" glyph-name="minus" horiz-adv-x="446" d="M352 273Q377 273 384 272T397 266Q410 256 410 239Q410 229 406 221T393 208Q388 205 382 205T352 204H95Q70 204 64 205T51 211Q37 222 37 239Q37 259 54 269Q59 272 65 272T95 273H352Z" />
<glyph unicode="&#x2219;" glyph-name="periodcentered" horiz-adv-x="181" d="M91 288Q108 288 120 276T132 247Q132 230 120 218T91 206Q73 206 61 218T49 247Q49 264 61 276T91 288Z" />
<glyph unicode="&#x25b6;" glyph-name="triagright" horiz-adv-x="667" d="M63 633L624 333L63 33V633Z" />
<glyph unicode="&#x25b8;" glyph-name="triagsmright" horiz-adv-x="500" d="M468 334L63 117V550L468 334Z" />
<glyph unicode="&#x25cb;" glyph-name="circle" horiz-adv-x="521" d="M258 543Q214 543 176 527T109 482T64 415T47 333Q47 289 63 251T109 185T177 140T260 123Q304 123 343 139T411 184T457 251T474 332Q474 376 458 414T412 481T343 526T258 543ZM264 589Q316
589 363 569T445 513T500 432T521 333Q521 280 501 234T445 152T362 97T260 77Q207 77 160 97T77 152T21 233T0 332Q0 386 20 432T77 514T161 569T264 589Z" />
<glyph unicode="&#x25cf;" glyph-name="blackcircle" horiz-adv-x="521" d="M264 589Q316 589 363 569T445 513T500 432T521 333Q521 280 501 234T445 152T362 97T260 77Q207 77 160 97T77 152T21 233T0 332Q0 386 20 432T77 514T161 569T264 589Z" />
<glyph unicode="&#x25fb;" glyph-name="whitemedbox" horiz-adv-x="527" d="M480 550H47V118H480V550ZM0 70V598H527V70H0Z" />
<glyph unicode="&#x25fc;" glyph-name="filledmedbox" horiz-adv-x="527" d="M0 70V597H527V70H0Z" />
<glyph unicode="&#xe481;" glyph-name="efhomemark" horiz-adv-x="779" d="M311 688L788 390L767 329L340 591L68 45L-8 80L311 688ZM355 541L524 438L498 378L387 442L356 379L469 314L440 251L258 348L355 541ZM242 315L426 219L396 152L274 213L240 145L366
86L334 17L139 108L242 315ZM554 420L711 321L687 267L582 329L554 267L660 207L633 149L470 235L554 420ZM456 203L619 117L591 55L486 110L426 -25L366 2L456 203Z" />
<glyph unicode="&#xf639;" glyph-name="zero.fitted" horiz-adv-x="446" d="M222 668Q259 668 292 651T350 596T389 494T403 338Q403 246 389 182T350 78T294 19T225 0Q187 0 154 18T97 77T58 182T43 338Q43 430 57 493T96 595T153 651T222 668ZM223 599Q200 599
183 585T154 548T134 496T121 438T114 381T112 334Q112 301 117 256T134 170T168 99T223 69Q245 69 262 83T291 120T312 172T325 230T332 287T334 335Q334 368 329 413T312 499T278 570T223 599Z" />
<glyph unicode="&#xf63a;" glyph-name="two.fitted" horiz-adv-x="426" d="M131 67Q145 68 154 68T173 69H337Q354 69 364 60T374 35Q374 19 364 10T337 0H87Q63 0 50 7T36 27Q36 35 40 43T56 70L226 335L236 350Q273 409 290 444T307 507Q307 558 279 578T206
599Q174 599 152 586T111 537Q100 517 91 509T69 501Q54 501 45 510T36 535Q36 558 51 584T93 631Q119 651 149 659T211 668Q248 668 278 660T331 633T365 584T378 512Q378 474 361 430T315 344L180 140Q172 127 167 119T156 103T145 87T130 68L131 67Z" />
<glyph unicode="&#xf63b;" glyph-name="three.fitted" horiz-adv-x="431" d="M165 667Q265 667 315 629T366 499Q366 417 295 366Q333 341 350 304T367 209Q367 107 321 54T185 0H72Q55 0 45 9T35 35Q35 50 45 59T72 69H167Q221 69 247 84Q270 96 284 127T298
198Q298 329 178 329H144Q127 329 117 338T106 364Q106 379 116 388T144 398H177Q231 398 263 426T296 501Q296 529 283 551T247 583Q233 589 211 593T168 598H82Q65 598 55 607T45 632Q45 648 55 657T82 667H165Z" />
<glyph unicode="&#xf63c;" glyph-name="four.fitted" horiz-adv-x="435" d="M245 196Q253 196 256 196T268 193Q266 201 266 204T265 216V321Q265 337 274 347T300 357Q315 357 324 347T334 321V204Q334 201 332 193Q339 195 343 195T355 196H397Q414 196 424
186T434 162Q434 146 424 137T397 127H355Q347 127 343 127T332 130Q334 122 334 118V36Q334 20 325 10T300 0Q284 0 275 10T265 36V107Q265 115 265 118T268 130Q260 128 257 128T245 127H84Q31 127 31 160Q31 165 33 173T37 192L150 589Q155 608 158 618T163
634T166 642L170 649Q175 658 183 662T199 667Q214 667 222 658T230 634Q230 627 228 615T221 590L123 239Q118 222 116 215T108 194Q123 196 131 196H245Z" />
<glyph unicode="&#xf63d;" glyph-name="five.fitted" horiz-adv-x="425" d="M338 598H151Q148 598 140 600Q142 592 142 589T143 578V435Q143 427 143 424T140 412Q148 414 151 414T163 415H182Q280 415 329 367T378 210Q378 148 358 104T303 32Q262 0 198 0H89Q73
0 63 9T53 35Q53 50 63 59T89 69H187Q244 69 276 105T309 205Q309 253 297 280T265 322Q252 333 232 339T191 346H117Q74 346 74 389V624Q74 667 117 667H338Q355 667 365 658T376 632Q376 617 366 608T338 598Z" />
<glyph unicode="&#xf63e;" glyph-name="six.fitted" horiz-adv-x="446" d="M221 400Q315 400 356 355T398 210Q398 107 354 53T226 -1Q179 -1 142 18T86 72Q56 128 56 244Q56 303 63 353T84 445T121 524T175 593Q206 625 239 646T293 667Q307 667 318 657T329
633Q329 621 321 613T283 586Q263 573 247 562T219 537T195 510T173 476Q160 453 154 437T143 397Q155 399 161 399T181 400H221ZM136 331Q132 306 130 284T128 240V194Q128 165 132 146T144 110Q155 90 176 79T224 68Q281 68 305 99T329 203Q329 271 304 301T221
331H136Z" />
<glyph unicode="&#xf63f;" glyph-name="seven.fitted" horiz-adv-x="416" d="M202 70Q196 47 192 34T182 13T170 3T155 0Q140 0 131 9T121 32Q121 35 121 37T123 44T126 55T132 76L190 286Q195 303 197 310T204 331Q199 329 191 329H120Q103 329 93 338T83 364Q83
379 93 388T120 398H220L263 554Q268 571 270 577T278 598Q263 597 255 597H56Q39 597 29 606T19 632Q19 648 29 657T56 667H298Q354 667 354 637Q354 624 349 604L304 441Q299 425 297 418T290 397Q295 398 302 398H341Q357 398 367 389T377 364Q377 348 367 339T341
329H273L202 70Z" />
<glyph unicode="&#xf640;" glyph-name="eight.fitted" horiz-adv-x="446" d="M384 477Q384 441 367 406T318 354Q358 334 375 298T392 210V176Q392 139 384 107T356 51T303 14T219 0Q172 0 140 13T87 50T58 106T49 176V210Q49 254 67 294T124 355Q89 372 73 407T57
477V509Q57 543 69 571T103 621T154 654T219 666Q300 666 342 623T384 509V477ZM128 479Q128 438 155 411T220 384Q260 384 286 410T313 477V509Q313 552 288 577T220 603Q180 603 154 577T128 509V479ZM120 181Q120 156 125 135T141 97T172 72T220 63Q251 63 271
72T302 97T317 134T321 180V210Q321 260 295 290T218 320Q170 320 145 290T120 210V181Z" />
<glyph unicode="&#xf641;" glyph-name="nine.fitted" horiz-adv-x="431" d="M220 267Q126 267 85 312T43 457Q43 560 87 614T215 668Q263 668 299 649T355 595Q385 539 385 423Q385 303 357 220T265 74Q233 40 201 20T148 0Q134 0 123 10T112 34Q112 46 120 54T158
81Q178 93 194 105T222 129T246 157T269 191Q282 214 288 230T298 270Q286 268 280 268T260 267H220ZM305 336Q309 361 311 383T313 427V474Q313 503 310 522T297 558Q286 577 265 588T217 599Q160 599 136 568T112 464Q112 396 137 366T220 336H305Z" />
<glyph unicode="&#xf6bc;" glyph-name="Emdash" horiz-adv-x="767" d="M682 368Q698 368 708 359T719 333Q719 318 709 309T682 299H85Q68 299 58 308T48 333Q48 349 58 358T85 368H682Z" />
<glyph unicode="&#xf6dc;" glyph-name="one.fitted" horiz-adv-x="360" d="M165 554L156 543Q153 540 149 536T137 523L113 499Q93 479 82 471T62 463Q50 463 40 473T29 496Q29 515 60 544L117 601Q139 622 152 635T175 655T190 664T202 667Q219 667 225 654T232
608V36Q232 20 222 10T198 0Q182 0 173 10T163 36V470Q163 484 164 496T166 520T169 552L165 554Z" />
<glyph unicode="&#xfb01;" glyph-name="fi" horiz-adv-x="490" d="M76 385Q76 393 76 396T79 408Q74 406 70 406H37Q20 406 10 416T-1 440Q-1 456 9 465T37 475H61Q67 475 70 475T79 472Q77 479 77 489T76 502V555Q76 612 110 639T205 667Q247 667 263 657T280
629Q280 609 269 602T239 594Q228 594 214 596T189 598Q160 598 153 582T145 525V497Q145 493 145 484T142 471Q150 474 154 474T167 475H224Q240 475 250 466T261 440Q261 425 251 416T224 406H153Q150 406 142 408Q144 400 144 397T145 385V36Q145 20 135 10T111
0Q95 0 86 10T76 36V385ZM346 438Q346 455 355 465T380 475Q396 475 405 465T415 438V36Q415 20 406 10T380 0Q365 0 356 10T346 36V438ZM331 625Q331 645 344 658T378 672Q398 672 411 658T425 624Q425 605 412 592T378 578Q358 578 345 591T331 625Z" />
<glyph unicode="&#xfb02;" glyph-name="fl" horiz-adv-x="497" d="M76 385Q76 393 76 396T79 408Q74 406 70 406H37Q20 406 10 416T-1 440Q-1 456 9 465T37 475H61Q67 475 70 475T79 472Q77 479 77 489T76 502V555Q76 612 110 639T205 667Q247 667 263 657T280
629Q280 609 269 602T239 594Q228 594 214 596T189 598Q160 598 153 582T145 525V497Q145 493 145 484T142 471Q150 474 154 474T167 475H224Q240 475 250 466T261 440Q261 425 251 416T224 406H153Q150 406 142 408Q144 400 144 397T145 385V36Q145 20 135 10T111
0Q95 0 86 10T76 36V385ZM340 631Q340 647 349 657T375 667Q389 667 399 657T409 631V149Q409 127 410 114T417 91T432 75T459 58Q474 49 474 33Q474 18 465 9T442 0Q422 0 400 12T364 41Q350 58 345 80T340 137V631Z" />
</font>
</defs>
</svg>
